Апокалипсис: Восхождение Гитлера / Apocalypse: The Rise of Hitler [2011 г., Документальный, Исторический, BDRip]

Ответить на тему
 
Автор
Сообщение

3232fox ®

Пол:

Стаж: 3 года 8 месяцев

Сообщений: 614

Репутация: 423 [+] [-]

Откуда: Крым,Россия

Пост 31-Июл-2013 00:06

[Цитировать] 

-Апокалипсис: Восхождение Гитлера / Apocalypse: The Rise of Hitler--Год выпуска: 2011
Страна: Франция,National Geographic Channels
Жанр: Документальный, Исторический
Продолжительность: 2 х ~ 00:54:14
Перевод: Авторский одноголосый Ю. Сербин--Описание: Во время Первой мировой войны (1914-1918 гг.) не удавшийся художник вдруг осознает свое предназначение: спасти Германию. Никто не мог предугадать, что Гитлер станет диктатором Германии, её фюрером. Переломным моментом для него стал экономический кризис 1929 года. Нацистская диктатура покрывает своей тенью всю Германию. Гитлер заявлял, что он желает мира, но в это время он уже был готов к войне – Апокалипсису.--Тип релиза: BDRip
Контейнер: AVI
Видео кодек: XviD
Аудио кодек: AC3 (Dolby Digital)
Видео: 704x400 ,1678 Кбит/с , 25.00fps
Аудио: AC3, 6 ch, 384 Кбит/с--Эпизоды:
1. Угроза / La Menace
2. Фюрер / Le Fuhrer--

Скриншоты

MI

General
Complete name : G:\видео\Apokalipsis.Gitler.(2.serii.iz.2).2011.XviD.BDRip\Apokalipsis.Gitler.(1.serija.iz.2).Ugroza.2011.XviD.BDRip.avi
Format : AVI
Format/Info : Audio Video Interleave
File size : 799 MiB
Duration : 54mn 16s
Overall bit rate : 2 059 Kbps
Writing application : VirtualDubMod 1.5.10.2 (build 2542/release)
Writing library : VirtualDubMod build 2542/release
Video
ID : 0
Format : MPEG-4 Visual
Format profile : Advanced Simple@L5
Format settings, BVOP : Yes
Format settings, QPel : No
Format settings, GMC : No warppoints
Format settings, Matrix : Default (MPEG)
Codec ID : XVID
Codec ID/Hint : XviD
Duration : 54mn 16s
Bit rate : 1 585 Kbps
Width : 704 pixels
Height : 400 pixels
Display aspect ratio : 16:9
Frame rate : 25.000 fps
Color space : YUV
Chroma subsampling : 4:2:0
Bit depth : 8 bits
Scan type : Progressive
Compression mode : Lossy
Bits/(Pixel*Frame) : 0.225
Stream size : 615 MiB (77%)
Writing library : XviD 1.2.1 (UTC 2008-12-04)
Audio
ID : 1
Format : AC-3
Format/Info : Audio Coding 3
Mode extension : CM (complete main)
Codec ID : 2000
Duration : 54mn 15s
Bit rate mode : Constant
Bit rate : 384 Kbps
Channel(s) : 6 channels
Channel positions : Front: L C R, Side: L R, LFE
Sampling rate : 48.0 KHz
Bit depth : 16 bits
Compression mode : Lossy
Stream size : 149 MiB (19%)
Alignment : Split accross interleaves
[Торрент-статистика]
[Профиль]  [ЛС] 

nova1980

Пол:

Стаж: 5 лет

Сообщений: 820

Репутация: 523 [+] [-]

Откуда: Одесса Мама

Пост 31-Июл-2013 18:57 (спустя 18 часов)

[Цитировать] 

3232fox, Когда раздача начнется? Пока переношу в тестовый!

_________________
Мои Раздачи
[Торрент-статистика]
[Профиль]  [ЛС] 

Пост 31-Июл-2013 18:57 (спустя 26 секунд)

Топик был перенесен из форума Документальные фильмы и телепередачи в форум Тестовый форум
nova1980
 

3232fox ®

Пол:

Стаж: 3 года 8 месяцев

Сообщений: 614

Репутация: 423 [+] [-]

Откуда: Крым,Россия

Пост 31-Июл-2013 22:35 (спустя 3 часа)

[Цитировать] 

Она раздаётся по DHT загрузка есть всегда,можете проверить скачать или немного начать качать
[Торрент-статистика]
[Профиль]  [ЛС] 
Показать сообщения:    
Ответить на тему

Текущее время: Сегодня 15:38

Часовой пояс: GMT + 4



Вы не можете начинать темы
Вы не можете отвечать на сообщения
Вы не можете редактировать свои сообщения
Вы не можете удалять свои сообщения
Вы не можете голосовать в опросах
Вы не можете прикреплять файлы к сообщениям
Вы не можете скачивать файлы