Катастройка /Catastroika [2012 г., Гипотезы, Документальный, DVDRip-AVC]

Ответить на тему
 
Автор
Сообщение

3232fox ®

Пол:

Стаж: 3 года 8 месяцев

Сообщений: 614

Репутация: 423 [+] [-]

Откуда: Крым,Россия

Пост 28-Июл-2013 00:47

[Цитировать] 

-Катастройка /Catastroika--Год выпуска: 2012
Страна: Греция
Жанр: Гипотезы, Документальный
Продолжительность: 01:27:22
Перевод:Любительский (одноголосый) (CVillian)--Описание: Создатели фильма проводят анализ перехода государственного имущества в частные руки. Путешествуя по миру они собирают информацию о том как проходила приватизация в развитых странах и пробуют понять, что произойдёт в Греции после реализации программы массовой приватизации. Документальный фильм раскрывает предстоящий результат расспродажи греческих активов, которая происходит под давлением кредиторов по причине огромного государственного долга. На примерах Лондона, Парижа, Берлина, Москвы и Рима, предсказывается что произойдёт в том случае если под руководством международной финансовой элиты эта модель будет применена и в Греции.--Тип релиза: DVDRip
Контейнер: AVI
Видео кодек: XviD
Аудио кодек: MP3 (MPEG1 Layer 3)
Видео: DivX, 720x404, 16:9, 1800 Kbps, 25 fps
Аудио: mp3, 192 Kbps, 48 kHz, 2 ch--

Скриншоты

MI

General
Complete name : G:\видео\Catastroika_rus.avi
Format : AVI
Format/Info : Audio Video Interleave
File size : 1.22 GiB
Duration : 1h 27mn
Overall bit rate : 2 005 Kbps
Video
ID : 0
Format : MPEG-4 Visual
Format profile : Advanced Simple@L4
Format settings, BVOP : Yes
Format settings, QPel : No
Format settings, GMC : No warppoints
Format settings, Matrix : Default (H.263)
Codec ID : DIVX
Codec ID/Info : Project Mayo
Codec ID/Hint : DivX 4
Duration : 1h 27mn
Bit rate : 1 725 Kbps
Width : 720 pixels
Height : 404 pixels
Display aspect ratio : 16:9
Frame rate : 25.000 fps
Color space : YUV
Chroma subsampling : 4:2:0
Bit depth : 8 bits
Scan type : Progressive
Compression mode : Lossy
Bits/(Pixel*Frame) : 0.237
Stream size : 1.05 GiB (86%)
Writing library : XviD 64
Audio
ID : 1
Format : MPEG Audio
Format version : Version 1
Format profile : Layer 3
Codec ID : 55
Codec ID/Hint : MP3
Duration : 1h 27mn
Bit rate mode : Constant
Bit rate : 192 Kbps
Channel(s) : 2 channels
Sampling rate : 48.0 KHz
Bit depth : 16 bits
Compression mode : Lossy
Stream size : 120 MiB (10%)
Alignment : Aligned on interleaves
[Торрент-статистика]
[Профиль]  [ЛС] 
Показать сообщения:    
Ответить на тему

Текущее время: Сегодня 16:16

Часовой пояс: GMT + 4



Вы не можете начинать темы
Вы не можете отвечать на сообщения
Вы не можете редактировать свои сообщения
Вы не можете удалять свои сообщения
Вы не можете голосовать в опросах
Вы не можете прикреплять файлы к сообщениям
Вы не можете скачивать файлы