Час Икс: Крушение "Эстонии"/ Zero Hour: The Sinking of the "Estonia" [2007 г., Документальный, Исторический, Катастрофа, Расследования, TVRip]

Ответить на тему
 
Автор
Сообщение

3232fox ®

Пол:

Стаж: 3 года 9 месяцев

Сообщений: 614

Репутация: 423 [+] [-]

Откуда: Крым,Россия

Пост 27-Июл-2013 23:53

[Цитировать] 

-Час Икс: Крушение "Эстонии"/ Zero Hour: The Sinking of the "Estonia"--Год выпуска: 2007
Страна: Великобритания,Канада
Жанр: Документальный, Исторический, Катастрофа, Расследования
Продолжительность: 00:46:57
Перевод: Профессиональный (одноголосый, закадровый)--Описание: Обратный отсчет времени до катастрофических моментов в истории. Есть часы и минуты, которые могут изменить ход истории, когда каждая секунда, каждое слово и каждое решение заполнены почти невыносимым напряжением и оказывают влияние на судьбу не только страны, но всего человечества. Zero Hour реконструирует эти конкретные моменты, позволяя зрителям почувствовать часы и минуты, ведущие к катастрофе...
Рассказ о последнем часе трагического путешествия парома "Эстония" с объяснением того, как катастрофа могла произойти и как некоторым удалось выжить 28 сентября 1994... Эстонцы этим судном гордились. Паром ESTONIA, в каком-то смысле, олицетворял собой новую Эстонию, совсем недавно ставшую независимой, суверенной страной. Новость о гибели парома, громом грянувшая ранним утром 28 сентября 1994 года, буквально потрясла всю страну, но не только ее. Катастрофа парома ESTONIA стала крупнейшей по количеству жертв в послевоенной Балтике. Согласно имеющимся данным, на борту судна на момент отплытия из Таллинна находилось 989 человек - 803 пассажира и 186 членов экипажа, 40 грузовиков, 25 легковых автомобилей, 9 микроавтобусов и 2 автобуса. Несмотря на полностью заполненные балластные танки, судно имело крен в 1 градус на правый борт.
--Тип релиза: TVRip
Контейнер: AVI
Видео кодек: DivX
Аудио кодек: MP3 (MPEG1 Layer 3)
Видео: DivX, 1023 Кбит/с, 640x412
Аудио: MP3, 2 ch, 96 Кбит/с--

Скриншоты

MI

General
Complete name : G:\видео\Zero Hour - Estonia.avi
Format : AVI
Format/Info : Audio Video Interleave
File size : 379 MiB
Duration : 46mn 57s
Overall bit rate : 1 130 Kbps
Writing application : VirtualDubMod 1.5.10.2 (build 2542/release)
Writing library : VirtualDubMod build 2542/release
Video
ID : 0
Format : MPEG-4 Visual
Format settings, BVOP : Yes
Format settings, QPel : No
Format settings, GMC : No warppoints
Format settings, Matrix : Default (H.263)
Muxing mode : Packed bitstream
Codec ID : DX50
Codec ID/Hint : DivX 5
Duration : 46mn 57s
Bit rate : 1 024 Kbps
Width : 640 pixels
Height : 412 pixels
Display aspect ratio : 1.553
Frame rate : 25.000 fps
Color space : YUV
Chroma subsampling : 4:2:0
Bit depth : 8 bits
Scan type : Progressive
Compression mode : Lossy
Bits/(Pixel*Frame) : 0.155
Stream size : 344 MiB (91%)
Writing library : DivX 6.8.5 (UTC 2009-08-20)
Audio
ID : 1
Format : MPEG Audio
Format version : Version 1
Format profile : Layer 3
Codec ID : 55
Codec ID/Hint : MP3
Duration : 46mn 57s
Bit rate mode : Constant
Bit rate : 96.0 Kbps
Channel(s) : 2 channels
Sampling rate : 48.0 KHz
Compression mode : Lossy
Stream size : 32.2 MiB (8%)
Alignment : Aligned on interleaves
Interleave, duration : 40 ms (1.00 video frame)
Interleave, preload duration : 504 ms
Writing library : LAME3.96r
Encoding settings : -m s -V 4 -q 2 -lowpass 15.3 -b 96
[Торрент-статистика]
[Профиль]  [ЛС] 
Показать сообщения:    
Ответить на тему

Текущее время: Сегодня 00:26

Часовой пояс: GMT + 4



Вы не можете начинать темы
Вы не можете отвечать на сообщения
Вы не можете редактировать свои сообщения
Вы не можете удалять свои сообщения
Вы не можете голосовать в опросах
Вы не можете прикреплять файлы к сообщениям
Вы не можете скачивать файлы