Тайны планеты Земля/ Удивительный тропический лес/ Южная Америка / Fascination Rainforest [2012 г., Документальный, познавательный, дикая природа, DVDRip]

Ответить на тему
 
Автор
Сообщение

3232fox ®

Пол:

Стаж: 3 года 9 месяцев

Сообщений: 614

Репутация: 423 [+] [-]

Откуда: Крым,Россия

Пост 26-Июл-2013 00:46

[Цитировать] 

--Тайны планеты Земля/ Удивительный тропический лес/ Южная Америка / Fascination Rainforest--Год выпуска: 2012
Страна: Германия
Жанр: Документальный, познавательный, дикая природа
Продолжительность: 00:51:52
Режиссер: Бенжамин Айхер, Тимо Дж. Мэйер
Перевод: Профессиональный одноголосый
Субтитры: Русские--Описание:Тайны зеленого океана. Вас ожидает захватывающее путешествие вглубь настоящего тропического леса. Загадочный мир, затерянный в самом сердце джунглей, предстанет во всей красе и многообразии сквозь призму всех форм жизни.--Тип релиза: DVDRip
Контейнер: AVI
Видео кодек: XviD
Аудио кодек: AC3 (Dolby Digital)
Видео: 704x400 (1.76:1), 25 fps, XviD build 50 ~1683 kbps avg, 0.24 bit/pixel
Аудио: Rus: 48 kHz, AC3 Dolby Digital, 3/2 (L,C,R,l,r) + LFE ch, ~384.00 kbps avg--

MI

General
Complete name : G:\видео\Fascination.Rainforest.2012.DVDRip\Fascination.Rainforest.2012.DVDRip.avi
Format : AVI
Format/Info : Audio Video Interleave
File size : 915 MiB
Duration : 51mn 52s
Overall bit rate : 2 466 Kbps
Writing application : VirtualDubModRus 1.5.10.2 (build 2542/release)
Video
ID : 0
Format : MPEG-4 Visual
Format profile : Advanced Simple@L5
Format settings, BVOP : Yes
Format settings, QPel : No
Format settings, GMC : No warppoints
Format settings, Matrix : Custom
Codec ID : XVID
Codec ID/Hint : XviD
Duration : 51mn 52s
Bit rate : 1 685 Kbps
Width : 704 pixels
Height : 400 pixels
Display aspect ratio : 16:9
Frame rate : 25.000 fps
Color space : YUV
Chroma subsampling : 4:2:0
Bit depth : 8 bits
Scan type : Progressive
Compression mode : Lossy
Bits/(Pixel*Frame) : 0.239
Stream size : 625 MiB (68%)
Writing library : XviD 1.2.1 (UTC 2008-12-04)
Audio #1
ID : 1
Format : AC-3
Format/Info : Audio Coding 3
Mode extension : CM (complete main)
Codec ID : 2000
Duration : 51mn 47s
Bit rate mode : Constant
Bit rate : 384 Kbps
Channel(s) : 6 channels
Channel positions : Front: L C R, Side: L R, LFE
Sampling rate : 48.0 KHz
Bit depth : 16 bits
Compression mode : Lossy
Stream size : 142 MiB (16%)
Alignment : Split accross interleaves
Interleave, duration : 40 ms (1.00 video frame)
Interleave, preload duration : 500 ms
Audio #2
ID : 2
Format : AC-3
Format/Info : Audio Coding 3
Mode extension : CM (complete main)
Codec ID : 2000
Duration : 51mn 47s
Bit rate mode : Constant
Bit rate : 384 Kbps
Channel(s) : 6 channels
Channel positions : Front: L C R, Side: L R, LFE
Sampling rate : 48.0 KHz
Bit depth : 16 bits
Compression mode : Lossy
Stream size : 142 MiB (16%)
Alignment : Split accross interleaves
Interleave, duration : 40 ms (1.00 video frame)
Interleave, preload duration : 500 ms

Скриншоты



Последний раз редактировалось: 3232fox (2013-07-26 00:53), всего редактировалось 1 раз
[Торрент-статистика]
[Профиль]  [ЛС] 

Волк

Пол:

Стаж: 5 лет 1 месяц

Сообщений: 689

Репутация: 292 [+] [-]

Откуда: Армения

Пост 26-Июл-2013 00:49 (спустя 2 минуты)

[Цитировать] 

http://brodim.com/viewtopic.php?t=8502 в этой раздачй я исправил обложку и перевод и перенес в правильный раздел.Здесь будь повнимателней!!!
[Торрент-статистика]
[Профиль]  [ЛС] 

3232fox ®

Пол:

Стаж: 3 года 9 месяцев

Сообщений: 614

Репутация: 423 [+] [-]

Откуда: Крым,Россия

Пост 26-Июл-2013 00:52 (спустя 3 минуты)

[Цитировать] 

31886http://brodim.com/viewtopic.php?t=8502 в этой раздачй я исправил обложку и перевод и перенес в правильный раздел.Здесь будь повнимателней!!!
Спасибки
[Торрент-статистика]
[Профиль]  [ЛС] 

Волк

Пол:

Стаж: 5 лет 1 месяц

Сообщений: 689

Репутация: 292 [+] [-]

Откуда: Армения

Пост 26-Июл-2013 00:57 (спустя 4 минуты)

[Цитировать] 

3232fox, не за что.
[Торрент-статистика]
[Профиль]  [ЛС] 

3232fox ®

Пол:

Стаж: 3 года 9 месяцев

Сообщений: 614

Репутация: 423 [+] [-]

Откуда: Крым,Россия

Пост 26-Июл-2013 00:58 (спустя 58 секунд)

[Цитировать] 

Займусь наверно документалкой, тут мне уютно
[Торрент-статистика]
[Профиль]  [ЛС] 
Показать сообщения:    
Ответить на тему

Текущее время: Сегодня 14:47

Часовой пояс: GMT + 4



Вы не можете начинать темы
Вы не можете отвечать на сообщения
Вы не можете редактировать свои сообщения
Вы не можете удалять свои сообщения
Вы не можете голосовать в опросах
Вы не можете прикреплять файлы к сообщениям
Вы не можете скачивать файлы