Самое странное место в океане / The Sea's Strangest Square Mile [2011 г., документальный, природа, SATRip]

Ответить на тему
 
Автор
Сообщение

3232fox ®

Пол:

Стаж: 3 года 9 месяцев

Сообщений: 614

Репутация: 423 [+] [-]

Откуда: Крым,Россия

Пост 26-Июл-2013 00:12

[Цитировать] 

--Самое странное место в океане / The Sea's Strangest Square Mile--Год выпуска: 2011
Страна: Великобритания
Жанр: документальный, природа
Продолжительность: 00:45
Перевод:Профессиональный (одноголосый, закадровый)--Описание: Пролив между индонезийскими островами Лембех и Сулавеси казалось бы обыкновенный участок моря. Но на самом деле это самое странное и самое таинственное место в мировом океане. На первый взгляд кажется, что морское дно здесь ровное и безжизненное, но где бы вы не были, везде за вами наблюдают удивительные существа, и невидимые хищники прячутся тут повсюду. В этом, казалось бы мрачном и безжизненном месте, похожем на лунный пейзаж, обитают диковинные существа, выработавшие уникальные способы выживания в нем, на нем и под ним. Жизнь для них - постоянная борьба за существование.--Тип релиза: SATRip
Контейнер: AVI
Видео кодек: XviD
Аудио кодек: MP3 (MPEG1 Layer 3)
Видео: 704x384, 1497 kbps
Аудио: MP3,2 ch, 128 kbps--

MI

General
Complete name : G:\видео\Самое странное место в океане.2011.SATRip.avi
Format : AVI
Format/Info : Audio Video Interleave
File size : 526 MiB
Duration : 44mn 58s
Overall bit rate : 1 635 Kbps
Writing application : VirtualDubMod 1.5.10.3 | www.virtualdub-fr.org || (build 2550/release)
Writing library : VirtualDubMod build 2550/release
Video
ID : 0
Format : MPEG-4 Visual
Format profile : Advanced Simple@L5
Format settings, BVOP : Yes
Format settings, QPel : No
Format settings, GMC : No warppoints
Format settings, Matrix : Custom
Codec ID : XVID
Codec ID/Hint : XviD
Duration : 44mn 58s
Bit rate : 1 434 Kbps
Width : 704 pixels
Height : 384 pixels
Display aspect ratio : 16:9
Frame rate : 25.000 fps
Color space : YUV
Chroma subsampling : 4:2:0
Bit depth : 8 bits
Scan type : Progressive
Compression mode : Lossy
Bits/(Pixel*Frame) : 0.212
Stream size : 461 MiB (88%)
Writing library : XviD 73
Audio
ID : 1
Format : MPEG Audio
Format version : Version 1
Format profile : Layer 3
Codec ID : 55
Codec ID/Hint : MP3
Duration : 44mn 58s
Bit rate mode : Constant
Bit rate : 128 Kbps
Channel(s) : 2 channels
Sampling rate : 48.0 KHz
Compression mode : Lossy
Stream size : 41.2 MiB (8%)
Alignment : Aligned on interleaves
Writing library : LAME3.99r
Encoding settings : -m s -V 4 -q 0 -lowpass 17 -b 128

Скриншоты

[Торрент-статистика]
[Профиль]  [ЛС] 

Пост 26-Июл-2013 00:44 (спустя 31 минута)

Топик был перенесен из форума Документальные фильмы (HD Video) в форум Документальные фильмы и телепередачи
Волк
 
Показать сообщения:    
Ответить на тему

Текущее время: Сегодня 16:34

Часовой пояс: GMT + 4



Вы не можете начинать темы
Вы не можете отвечать на сообщения
Вы не можете редактировать свои сообщения
Вы не можете удалять свои сообщения
Вы не можете голосовать в опросах
Вы не можете прикреплять файлы к сообщениям
Вы не можете скачивать файлы