Михаил Жванецкий. Авторский вечер (10.02.2012.) [2012 г., ТВ - шоу, SATRip]

Ответить на тему
 
Автор
Сообщение

Papa lawyer ®

Стаж: 5 лет

Сообщений: 6

Репутация: 3 [+] [-]

Пост 11-Фев-2012 17:49

[Цитировать] 

Михаил Жванецкий. Авторский вечер (10.02.2012.)
Год выпуска: 2012
Страна: Россия, телеканал Россия 1
Жанр: ТВ - шоу
Продолжительность: 01:07:36
Описание: Новый авторский вечер известного сатирика из Одессы Михаила Жванецкого!
Тип релиза: SATRip
Контейнер: AVI
Видео кодек: DivX
Аудио кодек: MP3 (MPEG1 Layer 3)
Видео: DivX 5, 1550 Kbps, 720x400, 25.000 fps
Аудио: MP3, 192 Kbps, 48.0 Hz

Скриншоты

MediaInfo

Общее
Формат : AVI
Формат/Информация : Audio Video Interleave
Размер файла : 847 Мбайт
Продолжительность : 1 ч. 7 м.
Общий поток : 1752 Кбит/сек
Библиотека кодирования : VirtualDub build 18160/release
Видео
Идентификатор : 0
Формат : MPEG-4 Visual
Параметр BVOP формата : 1
Параметр QPel формата : Нет
Параметр GMC формата : Без точки перехода
Параметр матрицы формата : Default (H.263)
Режим смешивания : Сжатый битовый поток
Идентификатор кодека : DX50
Идентификатор кодека/Подсказка : DivX 5
Продолжительность : 1 ч. 7 м.
Битрейт : 1551 Кбит/сек
Ширина : 720 пикс.
Высота : 400 пикс.
Соотношение сторон : 16:9
Частота кадров : 25,000 кадр/сек
Цветовое пространство : YUV
Подвыборка цветности : 4:2:0
Битовая глубина : 8 бит
Тип развёртки : Прогрессивная
Метод сжатия : С потерями
Бит/(Пиксели*Кадры) : 0.215
Размер потока : 750 Мбайт (88%)
Библиотека кодирования : DivX 3013
Аудио
Идентификатор : 1
Формат : MPEG Audio
Версия формата : Version 1
Профиль формата : Layer 3
Идентификатор кодека : 55
Идентификатор кодека/Подсказка : MP3
Продолжительность : 1 ч. 7 м.
Вид битрейта : Постоянный
Битрейт : 192 Кбит/сек
Каналы : 2 канала
Частота : 48,0 КГц
Метод сжатия : С потерями
Размер потока : 92,9 Мбайт (11%)
Выравнивание : Разделение по промежуткам
Продолжительность промежутка : 40 мс. (1,00 видеокадр)
Время предзагрузки промежутка : 500 ms

У кого проблемы с рейтингом, можно скачать передачу на местном форуме

http://www.nowa.cc/showthread.php?t=184944
Релиз группы:
[Торрент-статистика]
[Профиль]  [ЛС] 

Coss83

Пол:

Стаж: 4 года 9 месяцев

Сообщений: 27

Репутация: 29 [+] [-]

Пост 16-Апр-2013 15:28 (спустя 1 год 2 месяца)

[Цитировать] 

Интересно когда это сатирик Жванецкий стал документалистом,мне кажется раздачу нужно перенести в другой раздел
[Торрент-статистика]
[Профиль]  [ЛС] 

Chet

Пол:

Стаж: 5 лет 1 месяц

Сообщений: 1866

Репутация: 363 [+] [-]

Откуда: UA

Пост 16-Апр-2013 17:27 (спустя 1 час 58 минут)

[Цитировать] 

спасибо-спасибо!
[Торрент-статистика]
[Профиль]  [ЛС] 
Показать сообщения:    
Ответить на тему

Текущее время: Сегодня 15:38

Часовой пояс: GMT + 4



Вы не можете начинать темы
Вы не можете отвечать на сообщения
Вы не можете редактировать свои сообщения
Вы не можете удалять свои сообщения
Вы не можете голосовать в опросах
Вы не можете прикреплять файлы к сообщениям
Вы не можете скачивать файлы