Космос: Пространство и время / Cosmos: A SpaceTime Odyssey (Билл Поуп / Bill Pope) / Сезон: 1 / Серии: 1-13 из 13 [2014, Документальный, научно-познавательный, природа, HDRip] Профессиональный одноголосый «Арк-ТВ»

Ответить на тему
 
Автор
Сообщение

Волк ®

Пол:

Стаж: 5 лет 1 месяц

Сообщений: 689

Репутация: 292 [+] [-]

Откуда: Армения

Пост 02-Ноя-2014 21:02

[Цитировать] 

Космос: Пространство и время / Cosmos: A SpaceTime Odyssey- Год выпуска: 2014
Страна: США
Жанр: Документальный, научно-познавательный, природа
Продолжительность: 13 x ~ 00:44:00
Перевод: Профессиональный (одноголосый, закадровый) Озвучено студией «Арк-ТВ»
Русские субтитры: нет-Режиссер: Билл Поуп / Bill Pope-Описание: Документальный сериал рассказывает о последних научных открытиях, которые были сделаны в области астронавтики, астрофизики и других наук. Сериал «Космос: Путешествие во времени» является продолжением научно-популярной серии фильмов «Космос: Персональное путешествие с Карлом Саганом» и отражает события последних трех десятилетий. Астрофизик Нил Деграсс Тайсон с соавторами (среди которых вдова Сагана Энн Драйэн) расскажет об открытых законах мира космоса, о возможности межпланетных путешествий и наблюдении за космическими процессами. Все самые сложные понятия представлены с потрясающей четкостью, в повествовании соединяются научная точность и эмоциональность. Трехмерная компьютерная графика, уникальные съемки и использование спецэффектов делают каждый эпизод захватывающим и необычным.-качество: HDRip
формат: AVI
Видео: XviD, 720x400 (16:9), 23.976 fps ~ 1450 kbps, ~ 0.210 bit/pixel
Аудио: AC3, 192 kbps, 48,0 kHz, 2 ch-

Mediainfo

Код:
Общее
Полное имя : Kosmos.2014.XviD.HDRip.by.GeneralFilm\01.Kosmos.2014.XviD.HDRip.by.GeneralFilm.avi
Формат : AVI
Формат/Информация : Audio Video Interleave
Размер файла : 543 Мбайт
Продолжительность : 46 м.
Общий поток : 1649 Кбит/сек
Программа кодирования : VirtualDubMod 1.5.10.3 | www.virtualdub-fr.org || (build 2550/release)
Библиотека кодирования : VirtualDubMod build 2550/release
Видео
Идентификатор : 0
Формат : MPEG-4 Visual
Профиль формата : Advanced Simple@L5
Параметр BVOP формата : 1
Параметр QPel формата : Нет
Параметр GMC формата : Без точки перехода
Параметр матрицы формата : Default (H.263)
Идентификатор кодека : XVID
Идентификатор кодека/Подсказка : XviD
Продолжительность : 46 м.
Битрейт : 1448 Кбит/сек
Ширина : 720 пикселей
Высота : 400 пикселей
Соотношение сторон : 16:9
Частота кадров : 23,976 кадра/сек
Цветовое пространство : YUV
Субдискретизация насыщенности : 4:2:0
Битовая глубина : 8 бит
Тип развёртки : Прогрессивная
Метод сжатия : С потерями
Бит/(Пиксели*Кадры) : 0.210
Размер потока : 477 Мбайт (88%)
Библиотека кодирования : XviD 73
Аудио
Идентификатор : 1
Формат : AC-3
Формат/Информация : Audio Coding 3
Расширение режима : CM (complete main)
Параметр Endianness формата : Big
Идентификатор кодека : 2000
Продолжительность : 46 м.
Вид битрейта : Постоянный
Битрейт : 192 Кбит/сек
Каналы : 2 канала
Расположение каналов : Front: L R
Частота : 48,0 КГц
Битовая глубина : 16 бит
Метод сжатия : С потерями
Размер потока : 63,2 Мбайт (12%)
Выравнивание : Разделение по промежуткам
Продолжительность промежутка : 42 мс. (1,00 видеокадр)
Время предзагрузки промежутка : 500 мс.

Список выпусков/серий

01. Standing Up in the Milky Way / Стоя на Млечном Пути
02. Some of the Things That Molecules Do / Молекула
03. When Knowledge Conquered Fear / Когда знание победило страх
04. A Sky Full of Ghosts / Небо полное призраков
05. Hiding in the Light / Спрятаться на свету
06. Deeper, Deeper, Deeper Still / Всё глубже и глубже
07. The Clean Room / Возраст Земли
08. Sisters of the Sun / Сёстры Солнца
09. The Lost Worlds of Planet Earth / Затерянные миры планеты Земля
10. The Electric Boy / Электрический мальчик
11. The Immortals / Бессмертные
12. The World Set Free / Освобождённый мир
13. Unafraid of the Dark / Нестрашная темнота


Последний раз редактировалось: Волк (2014-11-09 12:24), всего редактировалось 1 раз
[Торрент-статистика]
[Профиль]  [ЛС] 

Leax

Стаж: 5 лет

Сообщений: 43

Репутация: 0 [+] [-]

Пост 03-Ноя-2014 00:07 (спустя 3 часа)

[Цитировать] 

Потрясающий сериал! Огромное спасибо, что выложили!
[Торрент-статистика]
[Профиль]  [ЛС] 

Wild_cat

Стаж: 4 года 10 месяцев

Сообщений: 23

Репутация: 13 [+] [-]

Пост 04-Ноя-2014 17:50 (спустя 1 день 17 часов)

[Цитировать] 

ts, извини за занудство, но количество серий 13. там, где "продолжительность" указана.
а сериал хорош. рекомендую.
[Торрент-статистика]
[Профиль]  [ЛС] 
Показать сообщения:    
Ответить на тему

Текущее время: Сегодня 00:29

Часовой пояс: GMT + 4



Вы не можете начинать темы
Вы не можете отвечать на сообщения
Вы не можете редактировать свои сообщения
Вы не можете удалять свои сообщения
Вы не можете голосовать в опросах
Вы не можете прикреплять файлы к сообщениям
Вы не можете скачивать файлы