Наркокультура / Narco Cultura (Шол Шварц / Shaul Schwarz) [2013 г., документальн​ый, криминал, HDRip] [PashaUP]

Ответить на тему
 
Автор
Сообщение

TiZAr ®

Пол:

Стаж: 3 года 3 месяца

Сообщений: 836

Репутация: 1157 [+] [-]

Откуда: Россия

Пост 13-Авг-2014 22:13

[Цитировать] 

Наркокультура / Narco Cultura
«The hits just keep on coming»
- Год выпуска: 2013
Страна: США, Мексика
Жанр: документальный, криминал
Продолжительность: 01:42:19
Перевод: Любительский (одноголосый)
Озвучено: PashaUP
Перевод: jasinpapa
Режиссер: Шол Шварц / Shaul Schwarz- -Описание:
Мексиканский пограничный город Сьюдад-Хуарес находится непосредственно рядом с техасским городом Эль-Пасо. С каждым годом все больше и больше растет число жизней, потерянных в результате беспощадных убийств наркокартелей. Наркодилеры в этих местах — это новые герои массовой культуры, причем по обе стороны границы.
Награды:
Сандэнс, 2013 год
Гран-при в категории «Документальный фильм»
Качество: HDRip
Формат: AVI
Видео: MPEG4, XviD, 720x400 (16:9), 23.976 fps, 1 586 Kbps (0.230 bit/pixel)
Аудио: AC-3, 48.0 KHz, 6 ch, 448 Kbps, CBR

Скриншоты

MI

Код:
General
Complete name                            : D:\downloads\Narco.Cultura.2013.HDRip.1400.ExKinoRay.avi
Format                                   : AVI
Format/Info                              : Audio Video Interleave
File size                                : 1.46 GiB
Duration                                 : 1h 42mn
Overall bit rate                         : 2 044 Kbps
Writing application                      : VirtualDubMod 1.5.10.2 (build 2540/release)
Writing library                          : VirtualDubMod build 2540/release
Copyright                                : ExKinoRay
Video
ID                                       : 0
Format                                   : MPEG-4 Visual
Format profile                           : Advanced Simple@L5
Format settings, BVOP                    : 1
Format settings, QPel                    : No
Format settings, GMC                     : No warppoints
Format settings, Matrix                  : Custom
Codec ID                                 : XVID
Codec ID/Hint                            : XviD
Duration                                 : 1h 42mn
Bit rate                                 : 1 586 Kbps
Width                                    : 720 pixels
Height                                   : 400 pixels
Display aspect ratio                     : 16:9
Frame rate                               : 23.976 fps
Color space                              : YUV
Chroma subsampling                       : 4:2:0
Bit depth                                : 8 bits
Scan type                                : Progressive
Compression mode                         : Lossy
Bits/(Pixel*Frame)                       : 0.230
Stream size                              : 1.13 GiB (78%)
Title                                    : Narco Cultura 2013
Writing library                          : XviD 1.2.1 (UTC 2008-12-04)
Audio
ID                                       : 1
Format                                   : AC-3
Format/Info                              : Audio Coding 3
Mode extension                           : CM (complete main)
Format settings, Endianness              : Big
Codec ID                                 : 2000
Duration                                 : 1h 42mn
Bit rate mode                            : Constant
Bit rate                                 : 448 Kbps
Channel(s)                               : 6 channels
Channel positions                        : Front: L C R, Side: L R, LFE
Sampling rate                            : 48.0 KHz
Bit depth                                : 16 bits
Compression mode                         : Lossy
Stream size                              : 328 MiB (22%)
Alignment                                : Split accross interleaves
Interleave, duration                     : 42 ms (1.00 video frame)
Interleave, preload duration             : 500 ms

_________________
Не стоит обращать внимания на отсутствие сидов на моих раздачах. Все мои релизы мультитрекерные - нет сидов, включите DHT.
За релизами в HD качестве обращайтесь в личку, либо отписывайтесь в теме.
[Торрент-статистика]
[Профиль]  [ЛС] 
Показать сообщения:    
Ответить на тему

Текущее время: Сегодня 00:26

Часовой пояс: GMT + 4



Вы не можете начинать темы
Вы не можете отвечать на сообщения
Вы не можете редактировать свои сообщения
Вы не можете удалять свои сообщения
Вы не можете голосовать в опросах
Вы не можете прикреплять файлы к сообщениям
Вы не можете скачивать файлы