Остров Крым /Серия 01-21 [2014 г., Документальный, познавательный, HDTVRip]

Ответить на тему
 
Автор
Сообщение

3232fox ®

Пол:

Стаж: 3 года 8 месяцев

Сообщений: 614

Репутация: 423 [+] [-]

Откуда: Крым,Россия

Пост 26-Апр-2014 23:40

[Цитировать] 

-Остров Крым--Год выпуска: 2014
Страна: Россия
Жанр: Документальный, познавательный
Серия 01-21
Продолжительность: ~ 00:26:00-- Режиссер: Людмила Снигирева, Илья Петров, Андрей Линич
Ведущие: Александр Олешко, Валдис Пельш, Дмитрий Харатьян, Арина Шарапова, Геннадий Хазанов, Леонид Якубович--Описание:
"Остров Крым" - цикл документальных фильмов, которые расскажут об удивительной истории, невероятной природе, уникальных артефактах и достопримечательностях Крымского полуострова. Мы отправимся в путешествие по самым знаковым местам полуострова вместе с ведущими - Александром Олешко, Валдисом Пельшем, Дмитрием Харатьяном, Ариной Шараповой, Геннадием Хазановым и Леонидом Якубовичем. Вместе с ними мы посетим восточный берег Крыма, проедем по южному берегу, доберемся до западного - так называемого Дикого Крыма и узнаем, чем живут центральные районы полуострова...--Тип релиза: HDTVRip
Контейнер: AVI
Видео кодек: XviD
Аудио кодек: AC3 (Dolby Digital)
Видео: 1699 Кбит/с, 720x400,16:9,25.000 fps
Аудио: AC3, 2 ch, 192 Кбит/с

Скриншоты

MI

General
Complete name : G:\видео\Krym.HDTVRip.MediaClub\Krym.01.HDTVRip.MediaClub.avi
Format : AVI
Format/Info : Audio Video Interleave
File size : 355 MiB
Duration : 26mn 6s
Overall bit rate : 1 900 Kbps
Writing library : VirtualDub build 32507/release
Video
ID : 0
Format : MPEG-4 Visual
Format profile : Advanced Simple@L5
Format settings, BVOP : Yes
Format settings, QPel : No
Format settings, GMC : No warppoints
Format settings, Matrix : Default (H.263)
Muxing mode : Packed bitstream
Codec ID : XVID
Codec ID/Hint : XviD
Duration : 26mn 6s
Bit rate : 1 698 Kbps
Width : 720 pixels
Height : 400 pixels
Display aspect ratio : 16:9
Frame rate : 25.000 fps
Color space : YUV
Chroma subsampling : 4:2:0
Bit depth : 8 bits
Scan type : Progressive
Compression mode : Lossy
Bits/(Pixel*Frame) : 0.236
Stream size : 317 MiB (89%)
Writing library : XviD 1.2.1 (UTC 2008-12-04)
Audio
ID : 1
Format : AC-3
Format/Info : Audio Coding 3
Mode extension : CM (complete main)
Codec ID : 2000
Duration : 26mn 6s
Bit rate mode : Constant
Bit rate : 192 Kbps
Channel(s) : 2 channels
Channel positions : Front: L R
Sampling rate : 48.0 KHz
Bit depth : 16 bits
Compression mode : Lossy
Stream size : 35.8 MiB (10%)
Alignment : Aligned on interleaves
Interleave, duration : 40 ms (1.00 video frame)
Interleave, preload duration : 512 ms
[Торрент-статистика]
[Профиль]  [ЛС] 

3232fox ®

Пол:

Стаж: 3 года 8 месяцев

Сообщений: 614

Репутация: 423 [+] [-]

Откуда: Крым,Россия

Пост 30-Сен-2014 23:22 (спустя 5 месяцев 3 дня)

[Цитировать] 

Добавлена 21 серия
[Торрент-статистика]
[Профиль]  [ЛС] 
Показать сообщения:    
Ответить на тему

Текущее время: Сегодня 16:16

Часовой пояс: GMT + 4



Вы не можете начинать темы
Вы не можете отвечать на сообщения
Вы не можете редактировать свои сообщения
Вы не можете удалять свои сообщения
Вы не можете голосовать в опросах
Вы не можете прикреплять файлы к сообщениям
Вы не можете скачивать файлы