Вам и не снилось: За семью печатями (Екатерина Ефремова) [2014 г., документальный, SATRip] [Рен-ТВ] (эфир от 29.01.2014)

Ответить на тему
 
Автор
Сообщение

TiZAr ®

Пол:

Стаж: 3 года 3 месяца

Сообщений: 836

Репутация: 1157 [+] [-]

Откуда: Россия

Пост 30-Янв-2014 04:17

[Цитировать] 

Вам и не снилось: За семью печатями- Год выпуска: 2014
Страна: Россия
Жанр: документальный
Продолжительность: 02:23:41
Режиссер: Екатерина Ефремова
Описание:
Бизнес на красоте, большие деньги, тайны русского золота, крестные отцы и крестные матери… Это невозможно представить! Невероятные повороты судьбы, уникальные стечения обстоятельств, феноменальные открытия. Такое «Нам и не снилось!». Все 3 часа каждого выпуска – только актуальные острые темы, расследование которых позволит по-новому взглянуть на давно известные события и факты. А также новые версии из цикла «Титаник. Репортаж с того света» и новые факты из жизни Ванги. Каждая серия станет настоящим и даже шокирующим откровением для зрителя!
В выпуске:
Кто определяет степень секретности той или иной информации? Где хранятся "секретные материалы"? Почему самым большим в мире хранилищем засекреченной информации считается библиотека конгресса США? Сколько обещал Черчилль за подлинную информацию о двойниках Сталина и какова цена, которую заплатил Эдвард Сноуден за свои разоблачения. Почему многие археологические находки и древние манускрипты тоже получили гриф "Секретно"?

Rip by Просто_Крол
Тип релиза: SATRip
Контейнер: AVI
Видео кодек: XviD
Аудио кодек: MP3 (MPEG1 Layer 3)
Видео: MPEG4, XviD, 704x528 (4:3), 25.000 fps, 1 495 Kbps (0.161 bit/pixel)
Аудио: MP3, 48.0 KHz, 2 ch, 128 Kbps, CBR

Скриншоты

MI

Код:
General
Complete name                            : Za sem'ju pechatjami. 29 01 2014 .avi
Format                                   : AVI
Format/Info                              : Audio Video Interleave
File size                                : 1.64 GiB
Duration                                 : 2h 23mn
Overall bit rate                         : 1 633 Kbps
Writing application                      : VirtualDubMod 1.5.10.2 (build 2540/release)
Writing library                          : VirtualDubMod build 2540/release
Video
ID                                       : 0
Format                                   : MPEG-4 Visual
Format profile                           : Advanced Simple@L5
Format settings, BVOP                    : 2
Format settings, QPel                    : No
Format settings, GMC                     : No warppoints
Format settings, Matrix                  : Default (MPEG)
Muxing mode                              : Packed bitstream
Codec ID                                 : XVID
Codec ID/Hint                            : XviD
Duration                                 : 2h 23mn
Bit rate                                 : 1 495 Kbps
Width                                    : 704 pixels
Height                                   : 528 pixels
Display aspect ratio                     : 4:3
Frame rate                               : 25.000 fps
Color space                              : YUV
Chroma subsampling                       : 4:2:0
Bit depth                                : 8 bits
Scan type                                : Progressive
Compression mode                         : Lossy
Bits/(Pixel*Frame)                       : 0.161
Stream size                              : 1.50 GiB (92%)
Writing library                          : XviD 64
Audio
ID                                       : 1
Format                                   : MPEG Audio
Format version                           : Version 1
Format profile                           : Layer 3
Mode                                     : Joint stereo
Codec ID                                 : 55
Codec ID/Hint                            : MP3
Duration                                 : 2h 23mn
Bit rate mode                            : Constant
Bit rate                                 : 128 Kbps
Channel count                            : 2 channels
Sampling rate                            : 48.0 KHz
Compression mode                         : Lossy
Stream size                              : 132 MiB (8%)
Alignment                                : Aligned on interleaves
Interleave, duration                     : 40 ms (1.00 video frame)
Interleave, preload duration             : 504 ms

_________________
Не стоит обращать внимания на отсутствие сидов на моих раздачах. Все мои релизы мультитрекерные - нет сидов, включите DHT.
За релизами в HD качестве обращайтесь в личку, либо отписывайтесь в теме.
[Торрент-статистика]
[Профиль]  [ЛС] 

ArtZak

Пол:

Стаж: 5 лет 1 месяц

Сообщений: 3008

Репутация: 1363 [+] [-]

Откуда: Россия

Пост 30-Янв-2014 04:23 (спустя 6 минут)

[Цитировать] 

Передача, как раз на тему безопасности и тотального слежения! Кто такой Сноуден?
Сегодня смотрел по Рен-ТВ.
[Торрент-статистика]
[Профиль]  [ЛС] 

leon024

Пол:

Стаж: 3 года 7 месяцев

Сообщений: 1151

Репутация: 632 [+] [-]

Откуда: Россия

Пост 30-Янв-2014 04:47 (спустя 23 минуты)

[Цитировать] 

Я тоже только,что посмотрел. Классный фильм как всегда есть над чем задуматься.
[Торрент-статистика]
[Профиль]  [ЛС] 

ArtZak

Пол:

Стаж: 5 лет 1 месяц

Сообщений: 3008

Репутация: 1363 [+] [-]

Откуда: Россия

Пост 30-Янв-2014 19:18 (спустя 14 часов)

[Цитировать] 

Тема "сисек" до конца не раскрыта - кто такой Сноуден так и осталось тайной, тотальная слежка продолжается, америкосы замутили квантовый компьютер, который к ядерному чемоданчику нашего президента пароль подберет за 7 минут... обычному потребуется 300 лет ac
Интрига еще в доках, который пообещал рассекретить сей персонаж и Джулиан Ассанж, в случае, если их попытаются устранить - в фильме на этот счет много домыслов...
Короче миром рулят мультимиллиардеры из закрытых клубов и что они уготовили нам на ближайшие годы, простым людям, одному Богу известно и, конечно же - им...
[Торрент-статистика]
[Профиль]  [ЛС] 

leon024

Пол:

Стаж: 3 года 7 месяцев

Сообщений: 1151

Репутация: 632 [+] [-]

Откуда: Россия

Пост 01-Фев-2014 01:20 (спустя 1 день 6 часов)

[Цитировать] 

Сталина на них нету. Он бы давно к стенке и расстрелял.
[Торрент-статистика]
[Профиль]  [ЛС] 
Показать сообщения:    
Ответить на тему

Текущее время: Сегодня 14:44

Часовой пояс: GMT + 4



Вы не можете начинать темы
Вы не можете отвечать на сообщения
Вы не можете редактировать свои сообщения
Вы не можете удалять свои сообщения
Вы не можете голосовать в опросах
Вы не можете прикреплять файлы к сообщениям
Вы не можете скачивать файлы