Красавица и чудовище / Beauty and the Beast / Сезон: 2 / Серии: 1-22 из 22 (Рик Бота, Стивен А. Эделсон, Майрзи Алмас) [2013, триллер, драма, WEB-DLRip] MVO (LostFilm)

Ответить на тему
 
Автор
Сообщение

awk05 ®

Пол:

Стаж: 5 лет 5 месяцев

Сообщений: 1352

Репутация: 275 [+] [-]

Откуда: Западная Украина Ривне

Пост 11-Окт-2013 13:43

[Цитировать] 

--Красавица и чудовище / Beauty and the Beast-- Год выпуска: 2013
Страна: США
Жанр: триллер, драма
Сезон/Серия: Сезон:2 /Серия 1-22 из 22
Продолжительность: 22 х ~00:42:00 серия
Перевод: Профессиональный (многоголосый закадровый) -
Субтитры: отсутствуют--Режиссёр: Рик Бота, Стивен А. Эделсон, Майрзи Алмас--В ролях: Кристин Кройк, Джей Райан, Джейсон Делайн, Алекс Пэкстон, Николь Гэйл Андерсон, Крис Площански и др.--Описание: Будучи подростком Кэтрин Чендлер узнала, что такое настоящая трагедия. Именно тогда на Кэтрин и ее мать напали грабители, вследствие чего ее мама умерла. Саму девочку от неминуемой гибели спасло странное существо, одновременно похожее и на человека, и на волка.
Через несколько лет Кэтрин Чендлер становится успешным детективом, работающим в убойном отделе. Она – красивый, жесткий и уверенный в себе сотрудник, способный раскрыть любое дело. Однажды рабочие обязательства приводят ее к доктору Винсенту Келлеру, который по официальной версии уже как 10 лет мертв – застрелен в Афганистане. На самом деле этот человек все эти годы был добровольным отшельником. Причина тому - неконтролируемая сила, которой он обладает в те моменты, когда превращается в …оборотня. В Винсенте Кэтрин узнает своего спасителя, того, кому она обязана жизнью. Теперь красавица и чудовище неразлучны, однако их взаимоотношения далеко нельзя назвать легкими.-- --Качество: WEB-DLRip
Формат: AVI
Видео кодек: XviD
Аудио кодек: MP3
Видео: 720x400 (16:9), 23,976 кадра/сек, 1466 Кбит/сек, 0.212 Бит/(Пиксели*Кадры)
Аудио: 2 канала Front: L R, 48,0 КГц, 192 Кбит/сек , 16 бит [RUS] |LostFilm|

Список серий

01. Who Am I? / Кто я?
02. Kidnapped / Похищение
03. Liar, Liar / Лжец, лжец
04. Hothead / Горячая голова
05. Reunion / Встреча
06. Father Knows Best / Отцу виднее
07. Guess Who's Coming to Dinner? / Угадай, кто придёт на ужин
08. Man or Beast? / Человек или чудовище?
09. Don't Die on Me / Не умирай из-за меня<. Ancestors / Предки
11. Held Hostage / В заложниках
12. Recipe for Disaster / Рецепт катастрофы
13. Till Death / Пока смерть нас не разлучит
14. Redemption / Искупление
15. Catch Me If You Can / Поймай меня, если сможешь
16. About Last Night / Насчёт прошлой ночи
17. Beast Is the New Black / Чудовище — хит сезона
18. Cat and Mouse / Кошки-мышки
19. Cold Case / Нераскрытое дело
20. Ever After / Долго и счастливо
21. Operation Fake Date / Операция "Свидание понарошку"
22. Déjà Vu / Дежа вю

MediaInfo

Общее
Полное имя : E:\СЕРИАЛЫ\Красавица и Чудовище\Beauty.and.the.Beast.S02.rus.LostFilm.TV\Beauty.and.the.Beast.S02E01.rus.LostFilm.TV.avi
Формат : AVI
Формат/Информация : Audio Video Interleave
Размер файла : 510 Мбайт
Продолжительность : 42 м.
Режим общего битрейта : Переменный
Общий поток : 1667 Кбит/сек
Программа кодирования : Nandub v1.0rc2
Библиотека кодирования : Nandub build 1853/release
Видео
Идентификатор : 0
Формат : MPEG-4 Visual
Профиль формата : Simple@L3
Параметр BVOP формата : Нет
Параметр QPel формата : Нет
Параметр GMC формата : Без точки перехода
Параметр матрицы формата : Default (H.263)
Идентификатор кодека : XVID
Идентификатор кодека/Подсказка : XviD
Продолжительность : 42 м.
Битрейт : 1466 Кбит/сек
Ширина : 720 пикселей
Высота : 400 пикселей
Соотношение сторон : 16:9
Частота кадров : 23,976 кадра/сек
Цветовое пространство : YUV
Субдискретизация насыщенности : 4:2:0
Битовая глубина : 8 бит
Тип развёртки : Прогрессивная
Метод сжатия : С потерями
Бит/(Пиксели*Кадры) : 0.212
Размер потока : 448 Мбайт (88%)
Библиотека кодирования : XviD 1.2.1 (UTC 2008-12-04)
Аудио
Идентификатор : 1
Формат : MPEG Audio
Версия формата : Version 1
Профиль формата : Layer 3
Режим : Joint stereo
Расширение режима : MS Stereo
Идентификатор кодека : 55
Идентификатор кодека/Подсказка : MP3
Продолжительность : 42 м.
Вид битрейта : Переменный
Битрейт : 192 Кбит/сек
Каналы : 2 канала
Частота : 48,0 КГц
Метод сжатия : С потерями
Размер потока : 57,3 Мбайт (11%)
Выравнивание : Соединение по промежуткам
Продолжительность промежутка : 24 мс. (0,58 видеокадр)
Время предзагрузки промежутка : 495 мс.
Библиотека кодирования : LAME3.97b
Настройки программы : -m j -V 4 -q 3 -lowpass 18.6 --abr 192

Раздача ведётся путём добавления новых серий

Раздача ведётся путём добавления новых серий; при каждом добавлении создаётся новый торрент. Чтобы начать докачку новой серии, пользователям необходимо сделать следующее:
(1) остановить скачивание,
(2) удалить старый торрент у себя из клиента (старые серии удалять не надо),
(3) скачать новый торрент и запустить его у себя в клиенте вместо старого, при этом указать клиенту путь в старую папку куда и должно происходить скачивание новых серий.
Ваш клиент при этом должен произвести хеширование (проверку) старой папки (если не производит сам - помогите ему сделать это), и будет докачивать только те серии которых у вас ещё нет. Старые серии при этом не удаляются, а продолжают раздаваться!
Eсли вы уже удалили старые серии, то предотвратить повторную закачку старых серий можно, отжав галочку в соответствующих местах при запуске нового торрента. По возможности, желательно не удалять старые серии как можно дольше чтобы релизёр не столько продолжал раздавать старые серии, а смог сконцентрироваться на новых.
«СЕЗОН 1» «СЕЗОН 2»

_________________


Последний раз редактировалось: awk05 (2013-11-28 00:27), всего редактировалось 2 раз(а)
[Торрент-статистика]
[Профиль]  [ЛС] 
Показать сообщения:    
Ответить на тему

Текущее время: Сегодня 23:32

Часовой пояс: GMT + 4



Вы не можете начинать темы
Вы не можете отвечать на сообщения
Вы не можете редактировать свои сообщения
Вы не можете удалять свои сообщения
Вы не можете голосовать в опросах
Вы не можете прикреплять файлы к сообщениям
Вы не можете скачивать файлы