Красавица и чудовище / Beauty and the Beast / Сезон: 1 / Серии: 1-22 (22) (Гэри Фледер) [2012 г., драма, криминал, WEB-DLRip] MVO (LostFilm)

Ответить на тему
 
Автор
Сообщение

awk05 ®

Пол:

Стаж: 5 лет 5 месяцев

Сообщений: 1352

Репутация: 275 [+] [-]

Откуда: Западная Украина Ривне

Пост 13-Май-2013 20:41

[Цитировать] 

-Красавица и чудовище / Beauty and the Beast- -Год выпуска: 2012
Страна: США (The CW)
Жанр: драма, криминал
Продолжительность: ~ 00:44:00
Перевод: Профессиональный (многоголосый, закадровый) LostFilm
Режиссер: Гэри Фледер-В ролях:
Кристин Кройк, Джей Райан, Джейсон Делайн, Алекс Пэкстон, Николь Гэйл Андерсон, Крис Площански и др.-Описание: Будучи подростком Кэтрин Чендлер узнала, что такое настоящая трагедия. Именно тогда на Кэтрин и ее мать напали грабители, вследствие чего ее мама умерла. Саму девочку от неминуемой гибели спасло странное существо, одновременно похожее и на человека, и на волка.
Через несколько лет Кэтрин Чендлер становится успешным детективом, работающим в убойном отделе. Она – красивый, жесткий и уверенный в себе сотрудник, способный раскрыть любое дело. Однажды рабочие обязательства приводят ее к доктору Винсенту Келлеру, который по официальной версии уже как 10 лет мертв – застрелен в Афганистане. На самом деле этот человек все эти годы был добровольным отшельником. Причина тому - неконтролируемая сила, которой он обладает в те моменты, когда превращается в …оборотня. В Винсенте Кэтрин узнает своего спасителя, того, кому она обязана жизнью. Теперь красавица и чудовище неразлучны, однако их взаимоотношения далеко нельзя назвать легкими.-Релиз: -Сэмпл-Качество: WEB-DLRip
Формат: AVI
Видео кодек: XviD
Аудио кодек: MP3
Видео: 720x400 (16/9), 23.976 fps, ~1350 Kbps (0.19 bit/pixel)
Аудио (rus): 48 kHz, MPEG Layer 3, 2 ch, ~128.00 kbps avg
Аудио 2 (eng): 48 kHz, MPEG Layer 3, 2 ch, ~128.00 kbps avg- -

Скриншоты


MI

Расположение: E:\СЕРИАЛЫ\Красавица и Чудовище (Сезон 1) LostFilm\beauty.and.the.beast.S01E01.rus.eng.LostFilm.avi
Имя файла: beauty.and.the.beast.S01E01.rus.eng.LostFilm.avi
Формат файла: .avi (AVI)
Размер файла: 0 Byte(s)
Длительность: 42mn 30s
Навигация по главам: Нет
Bitrate (все потоки): 1 727 Kbps
...при помощи: VirtualDubMod 1.5.10.3 | www.virtualdub-fr.org || (build 2550/release)
...с использованием: VirtualDubMod build 2550/release
Название: beauty.and.the.beast.S01E21.rus.eng.LostFilm
Тип потока: Видео
Длительность: 00:42:30
Кодек: MPEG-4 Visual
Кодек/Профиль: Advanced Simple@L5
Кодек/ID: XVID
Размеры изображения: 720 x 400 (16:9)
Частота кадров: 23.976 fps
Размер потока: 443 MiB (84%)
Битрейт: 1 457 Kbps
Цветовое пространство: YUV
Тип развёртки: Progressive
Bits/(Pixel*Frame): 0.211
Глубина пикселя: 8 bits
Библиотека кодирования: XviD 63
Тип потока: Звук #1
Длительность: 00:42:30.960
Кодек: MPEG Audio
Кодек/ID: 55
Частота дискретизации: 48.0 KHz
Каналы: 2 channels
Битрейт: 128 Kbps
Тип битрейта: Constant
Размер потока: 38.9 MiB (7%)
Тип потока: Звук #2
Длительность: 00:42:30.960
Кодек: MPEG Audio
Кодек/ID: 55
Частота дискретизации: 48.0 KHz
Каналы: 2 channels
Битрейт: 128 Kbps
Тип битрейта: Constant
Размер потока: 38.9 MiB (7%)

Внимание! Раздача ведётся путём добавления новых серий

Внимание! Раздача ведётся путём добавления новых серий; при каждом добавлении создётся новый торрент. Чтобы начать докачку новой серии, пользователям необходимо сделать следующее:
(1) остановить скачивание,
(2) удалить старый торрент у себя из клиента (старые серии удалять не надо),
(3) скачать новый торрент и запустить его у себя в клиенте вместо старого, при этом указать клиенту путь в старую папку куда и должно происходить скачивание новых серий.
Ваш клиент при этом должен произвести хеширование (проверку) старой папки (если не производит сам - помогите ему сделать это), и будет докачивать только те серии которых у вас ещё нет. Старые серии при этом не удаляются, а продолжают раздаваться!
Eсли вы уже удалили старые серии, то предотвратить повторную закачку старых серий можно, отжав галочку в соответсвующих местах при запуске нового торрента. По возможности, желательно не удалять старые серии как можно дольше чтобы релизёр не столько продолжал раздавать старые серии, а смог сконцентрироваться на новых.
«СЕЗОН 1» «СЕЗОН 2»

_________________
[Торрент-статистика]
[Профиль]  [ЛС] 
Показать сообщения:    
Ответить на тему

Текущее время: Сегодня 06:09

Часовой пояс: GMT + 4



Вы не можете начинать темы
Вы не можете отвечать на сообщения
Вы не можете редактировать свои сообщения
Вы не можете удалять свои сообщения
Вы не можете голосовать в опросах
Вы не можете прикреплять файлы к сообщениям
Вы не можете скачивать файлы