Красавица и чудовище / Beauty and the Beast / Сезон: 1 / Серии: 1-14 (?) (Гэри Фледер) [2012 - 2013 г., драма, криминал, WEB-DLRip] DVO (NewStudio)

Ответить на тему
 
Автор
Сообщение

awk05 ®

Пол:

Стаж: 5 лет 5 месяцев

Сообщений: 1352

Репутация: 275 [+] [-]

Откуда: Западная Украина Ривне

Пост 27-Фев-2013 20:49

[Цитировать] 

-Красавица и чудовище / Beauty and the Beast-Добавлена 14 серия -Год выпуска: 2012-2013
Страна: США (The CW)
Жанр: драма, криминал
Продолжительность: ~ 00:44:00
Перевод: Профессиональный (двухголосый, закадровый) NewStudio
Режиссер: Гэри Фледер-В ролях:
Кристин Кройк, Джей Райан, Джейсон Делайн, Алекс Пэкстон, Николь Гэйл Андерсон, Крис Площански и др.-Описание:
В центре сюжета находится умный, жесткий и уверенный в себе детектив убойного отдела Кэтрин Чандлер, которая начинает работать в паре с доктором Винсентом Келлером, бывшим солдатом, который стал жертвой медицинских опытов, вследствие чего теперь обладает огромной физической силой. Вместе они расследуют самые жестокие преступления, совершенные в Нью-Йорке.-Релиз:
Перевод: Creative Translation
Озвучка: Юлия Котурбаш, Артём Мирон
Подготовка видео: Koss
Работа со звуком: Cherry- -
-Качество: WEB-DLRip[/b]
Формат: AVI
Видео кодек: XviD
Аудио кодек: MP3
Видео: 720x400 (16/9), 23.976 fps, ~1400 Kbps (0.21 bit/pixel)
Аудио (rus): 48 kHz, MPEG Layer 3, 2 ch, ~128.00 kbps avg
Аудио 2 (eng): 48 kHz, MPEG Layer 3, 2 ch, ~128.00 kbps avg--

Скриншоты


MI

Расположение: E:\СЕРИАЛЫ\Красавица и Чудовище (Сезон 1) NewStudio\beauty.and.the.beast.2012.s01e01.webdlrip_NewStudio.TV.avi
Имя файла: beauty.and.the.beast.2012.s01e01.webdlrip_NewStudio.TV.avi
Формат файла: .avi (AVI)
Размер файла: 550.08 MB
Длительность: 42mn 45s
Навигация по главам: Нет
Bitrate (все потоки): 1 799 Kbps
Тип битрейта (все потоки): Variable
...при помощи: VirtualDubMod 1.5.10.2 (build 2540/release)
...с использованием: VirtualDubMod build 2540/release
Название: beauty.and.the.beast.2012.s01e01.webdlrip_NewStudio.TV
Тип потока: Видео
Длительность: 00:42:45
Кодек: MPEG-4 Visual
Кодек/Профиль: Advanced Simple@L5
Кодек/ID: XVID
Размеры изображения: 720 x 400 (16:9)
Частота кадров: 23.976 fps
Размер потока: 468 MiB (85%)
Битрейт: 1 529 Kbps
Цветовое пространство: YUV
Тип развёртки: Progressive
Bits/(Pixel*Frame): 0.221
Глубина пикселя: 8 bits
Библиотека кодирования: XviD 64
Тип потока: Звук #1
Длительность: 00:42:45.552
Кодек: MPEG Audio
Кодек/ID: 55
Частота дискретизации: 48.0 KHz
Каналы: 2 channels
Битрейт: 128 Kbps
Тип битрейта: Constant
Размер потока: 39.1 MiB (7%)
Тип потока: Звук #2
Длительность: 00:42:45.552
Кодек: MPEG Audio
Кодек/ID: 55
Частота дискретизации: 48.0 KHz
Каналы: 2 channels
Битрейт: 128 Kbps
Тип битрейта: Variable
Размер потока: 38.1 MiB (7%)

Внимание! Раздача ведётся путём добавления новых серий

Внимание! Раздача ведётся путём добавления новых серий; при каждом добавлении создётся новый торрент. Чтобы начать докачку новой серии, пользователям необходимо сделать следующее:
(1) остановить скачивание,
(2) удалить старый торрент у себя из клиента (старые серии удалять не надо),
(3) скачать новый торрент и запустить его у себя в клиенте вместо старого, при этом указать клиенту путь в старую папку куда и должно происходить скачивание новых серий.
Ваш клиент при этом должен произвести хеширование (проверку) старой папки (если не производит сам - помогите ему сделать это), и будет докачивать только те серии которых у вас ещё нет. Старые серии при этом не удаляются, а продолжают раздаваться!
Eсли вы уже удалили старые серии, то предотвратить повторную закачку старых серий можно, отжав галочку в соответсвующих местах при запуске нового торрента. По возможности, желательно не удалять старые серии как можно дольше чтобы релизёр не столько продолжал раздавать старые серии, а смог сконцентрироваться на новых.

_________________


Последний раз редактировалось: awk05 (2013-05-05 14:39), всего редактировалось 2 раз(а)
[Торрент-статистика]
[Профиль]  [ЛС] 

Пост 27-Фев-2013 22:52 (спустя 2 часа 2 минуты)

Топик был перенесен из форума Зарубежные сериалы в форум Красавица и чудовище / Beauty and the Beast
TYAnCE
 
Показать сообщения:    
Ответить на тему

Текущее время: Сегодня 05:49

Часовой пояс: GMT + 4



Вы не можете начинать темы
Вы не можете отвечать на сообщения
Вы не можете редактировать свои сообщения
Вы не можете удалять свои сообщения
Вы не можете голосовать в опросах
Вы не можете прикреплять файлы к сообщениям
Вы не можете скачивать файлы