Призрачный патруль в 3Д / R.I.P.D. 3D (Роберт Швентке / Robert Schwentke) [2013 г., фэнтези, боевик, комедия, криминал, BDRip 1080p] [Лицензия, BD CEE] Half OverUnder / Вертикальная анаморфная стереопара

Ответить на тему
 
Автор
Сообщение

TiZAr ®

Пол:

Стаж: 7 лет 4 месяца

Сообщений: 823

Репутация: 1160 [+] [-]

Откуда: Россия

Пост 12-Ноя-2013 23:19

[Цитировать] 

Призрачный патруль в 3Д / R.I.P.D. 3D
«Они защищают наш мир от гостей с того света»
-
  • Страна: США
  • Студия: Universal Pictures, Original Film, Rhythm & Hues
  • Жанр: фэнтези, боевик, комедия, криминал
  • Год выпуска: 2013
  • Продолжительность: 01:35:54
  • Перевод: русский профессиональный (полное дублирование) [Лицензия, BD CEE]
  • Оригинальная аудиодорожка: английская
  • Русские субтитры: есть
  • Режиссер: Роберт Швентке / Robert Schwentke
  • В ролях: Райан Рейнольдс, Кевин Бейкон, Джефф Бриджес, Мэри-Луиз Паркер, Девин Рэтрей, Роберт Неппер, Стефани Зостак, Джеймс Хонг, Майк О’Мэлли, Мариса Миллер, Джонатан Ретамоза-Давила, Зои Аггелики, Качина Дечерт, Майк Йебба, Тобиаш Сигал
  • Роли дублировали: Владимир Антоник, Пётр Иващенко, Владимир Зайцев, Диомид Виноградов, Сергей Чихачев-
    Детективы из загробного департамента расследуют преступления по ту сторону могилы и гоняются за не в меру ретивой нечистью. Молодой коп, после гибели от руки неизвестного злоумышленника угодивший в мир иной, в обмен на помощь при расследовании собственного убийства обязуется следующие сто лет посвятить службе в R.I.P.D. и, получив в напарники брутального стрелка эпохи вестернов, выходит на борьбу с неупокоившимся злом.-
  • Тип релиза: BDRip 1080p (исходник: Призрачный патруль / R.I.P.D. (2013) 3D Blu-ray CEE)
  • Контейнер: MKV
  • Видео кодек: x264
  • Аудио кодек: AC3
  • Видео: AVC / High@L4.1 / 2 pass / 23,976 fps / 1920x1080p (16:9) / 8,5 Mbps / 0.171
  • Аудио 1: AC3 / 5.1 ch / 448 kbps / Русский дубляж, BD CEE
  • Аудио 2: AC3 / 5.1 ch / 640 kbps / Английский original, BD CEE
  • Субтитры: [softsub SRT]
    Русские Forced, BD CEE (включены по умолчанию)
    Русские Full, BD CEE
    Украинские Forced, mod. BD CEE
    Украинские Full, BD CEE
    Английские Full, BD CEE
    Английские SDH, mod. BD CEE
    Английские SDH-COLOR, mod. BD CEE
  • Дополнительно: Сохранены оригинальные чаптеры (главы) как на Blu-ray- - -

Дополнительно о фильме:

Знаете ли вы, что...

Технические детали съёмки:

Производство, студия дубляжа, прокат:

Log x264:

Код:
x264 [info]: frame I:674   Avg QP:14.13  size:212809
x264 [info]: frame P:37387 Avg QP:17.49  size: 86533
x264 [info]: frame B:99908 Avg QP:19.10  size: 27361

MediaInfo:

Код:
Общее
Уникальный идентификатор                 : 247263633560434440331428899472347877314 (0xBA053E5CC78F881CAA8DE030F8F1CFC2)
Полное имя                               : F:\Скачка торрент\RIPD.3D.2013.BDRip1080p.halfOU(Killbrain)_[scarabey.org].mkv
Формат                                   : Matroska
Версия формата                           : Version 2
Размер файла                             : 6,42 Гбайт
Продолжительность                        : 1 ч. 35 м.
Общий поток                              : 9587 Кбит/сек
Название фильма                          : R.I.P.D. 3D (2013) by Killbrain
Дата кодирования                         : UTC 2013-11-11 16:00:00
Программа кодирования                    : mkvmerge v5.8.0 ('No Sleep / Pillow') built on Sep  2 2012 15:37:04
Библиотека кодирования                   : libebml v1.2.3 + libmatroska v1.3.0
Видео
Идентификатор                            : 1
Формат                                   : AVC
Формат/Информация                        : Advanced Video Codec
Профиль формата                          : High@L4.1
Параметр CABAC формата                   : Да
Параметр ReFrames формата                : 4 кадра
Идентификатор кодека                     : V_MPEG4/ISO/AVC
Продолжительность                        : 1 ч. 35 м.
Битрейт                                  : 8500 Кбит/сек
Ширина                                   : 1920 пикселей
Высота                                   : 1080 пикселей
Соотношение сторон                       : 16:9
Режим частоты кадров                     : Постоянный
Частота кадров                           : 23,976 кадра/сек
Цветовое пространство                    : YUV
Субдискретизация насыщенности            : 4:2:0
Битовая глубина                          : 8 бит
Тип развёртки                            : Прогрессивная
Бит/(Пиксели*Кадры)                      : 0.171
Размер потока                            : 5,57 Гбайт (87%)
Заголовок                                : R.I.P.D. 3D (2013)
Библиотека кодирования                   : x264 core 138 r2358 9e941d1
Настройки программы                      : cabac=1 / ref=4 / deblock=1:-3:-3 / analyse=0x3:0x113 / me=umh / subme=10 / psy=1 / psy_rd=1.00:0.05 / mixed_ref=1 / me_range=32 / chroma_me=1 / trellis=2 / 8x8dct=1 / cqm=0 / deadzone=21,11 / fast_pskip=0 / chroma_qp_offset=-3 / threads=3 / lookahead_threads=1 / sliced_threads=0 / nr=0 / decimate=0 / interlaced=0 / bluray_compat=0 / constrained_intra=0 / bframes=6 / b_pyramid=2 / b_adapt=2 / b_bias=0 / direct=3 / weightb=1 / open_gop=0 / weightp=2 / keyint=240 / keyint_min=24 / scenecut=40 / intra_refresh=0 / rc_lookahead=60 / rc=2pass / mbtree=0 / bitrate=8500 / ratetol=1.0 / qcomp=0.65 / qpmin=0 / qpmax=69 / qpstep=4 / cplxblur=20.0 / qblur=0.5 / vbv_maxrate=40000 / vbv_bufsize=30000 / nal_hrd=none / frame-packing=4 / ip_ratio=1.40 / pb_ratio=1.30 / aq=1:0.70
Язык                                     : English
Default                                  : Да
Forced                                   : Нет
Аудио #1
Идентификатор                            : 2
Формат                                   : AC-3
Формат/Информация                        : Audio Coding 3
Расширение режима                        : CM (complete main)
Параметр Endianness формата              : Big
Идентификатор кодека                     : A_AC3
Продолжительность                        : 1 ч. 35 м.
Вид битрейта                             : Постоянный
Битрейт                                  : 448 Кбит/сек
Каналы                                   : 6 каналов
Расположение каналов                     : Front: L C R, Side: L R, LFE
Частота                                  : 48,0 КГц
Битовая глубина                          : 16 бит
Метод сжатия                             : С потерями
Размер потока                            : 307 Мбайт (5%)
Заголовок                                : AC3 / 5.1 ch / 448 kbps / Русский дубляж, BD CEE
Язык                                     : Russian
Default                                  : Да
Forced                                   : Нет
Аудио #2
Идентификатор                            : 3
Формат                                   : AC-3
Формат/Информация                        : Audio Coding 3
Расширение режима                        : CM (complete main)
Параметр Endianness формата              : Big
Идентификатор кодека                     : A_AC3
Продолжительность                        : 1 ч. 35 м.
Вид битрейта                             : Постоянный
Битрейт                                  : 640 Кбит/сек
Каналы                                   : 6 каналов
Расположение каналов                     : Front: L C R, Side: L R, LFE
Частота                                  : 48,0 КГц
Битовая глубина                          : 16 бит
Метод сжатия                             : С потерями
Размер потока                            : 439 Мбайт (7%)
Заголовок                                : AC3 / 5.1 ch / 640 kbps / Английский original, BD CEE
Язык                                     : English
Default                                  : Нет
Forced                                   : Нет
Текст #1
Идентификатор                            : 4
Формат                                   : UTF-8
Идентификатор кодека                     : S_TEXT/UTF8
Идентификатор кодека/Информация          : UTF-8 Plain Text
Заголовок                                : Forced, BD CEE
Язык                                     : Russian
Default                                  : Да
Forced                                   : Нет
Текст #2
Идентификатор                            : 5
Формат                                   : UTF-8
Идентификатор кодека                     : S_TEXT/UTF8
Идентификатор кодека/Информация          : UTF-8 Plain Text
Заголовок                                : Full, BD CEE
Язык                                     : Russian
Default                                  : Нет
Forced                                   : Нет
Текст #3
Идентификатор                            : 6
Формат                                   : UTF-8
Идентификатор кодека                     : S_TEXT/UTF8
Идентификатор кодека/Информация          : UTF-8 Plain Text
Заголовок                                : Forced, mod. BD CEE
Язык                                     : Ukrainian
Default                                  : Нет
Forced                                   : Нет
Текст #4
Идентификатор                            : 7
Формат                                   : UTF-8
Идентификатор кодека                     : S_TEXT/UTF8
Идентификатор кодека/Информация          : UTF-8 Plain Text
Заголовок                                : Full, BD CEE
Язык                                     : Ukrainian
Default                                  : Нет
Forced                                   : Нет
Текст #5
Идентификатор                            : 8
Формат                                   : UTF-8
Идентификатор кодека                     : S_TEXT/UTF8
Идентификатор кодека/Информация          : UTF-8 Plain Text
Заголовок                                : Full, BD CEE
Язык                                     : English
Default                                  : Нет
Forced                                   : Нет
Текст #6
Идентификатор                            : 9
Формат                                   : UTF-8
Идентификатор кодека                     : S_TEXT/UTF8
Идентификатор кодека/Информация          : UTF-8 Plain Text
Заголовок                                : SDH, mod. BD CEE
Язык                                     : English
Default                                  : Нет
Forced                                   : Нет
Текст #7
Идентификатор                            : 10
Формат                                   : UTF-8
Идентификатор кодека                     : S_TEXT/UTF8
Идентификатор кодека/Информация          : UTF-8 Plain Text
Заголовок                                : SDH-COLOR, mod. BD CEE
Язык                                     : English
Default                                  : Нет
Forced                                   : Нет
Меню
00:00:00.000                             : :Chapter 01
00:03:57.111                             : :Chapter 02
00:09:13.135                             : :Chapter 03
00:14:30.578                             : :Chapter 04
00:17:58.410                             : :Chapter 05
00:22:30.599                             : :Chapter 06
00:27:09.502                             : :Chapter 07
00:33:33.511                             : :Chapter 08
00:38:46.157                             : :Chapter 09
00:43:27.646                             : :Chapter 10
00:46:31.747                             : :Chapter 11
00:52:04.037                             : :Chapter 12
00:55:52.098                             : :Chapter 13
01:02:15.982                             : :Chapter 14
01:07:01.100                             : :Chapter 15
01:10:35.689                             : :Chapter 16
01:13:16.308                             : :Chapter 17
01:17:52.125                             : :Chapter 18
01:23:00.934                             : :Chapter 19
01:27:27.909                             : :Chapter 20

Скриншоты:

Немного отзывов с Кинопоиска.Ру:




_________________
Не стоит обращать внимания на отсутствие сидов на моих раздачах. Все мои релизы мультитрекерные - нет сидов, включите DHT.
За релизами в HD качестве обращайтесь в личку, либо отписывайтесь в теме.
[Торрент-статистика]
[Профиль]  [ЛС] 
Показать сообщения:    
Ответить на тему

Текущее время: Сегодня 22:19

Часовой пояс: GMT + 4



Вы не можете начинать темы
Вы не можете отвечать на сообщения
Вы не можете редактировать свои сообщения
Вы не можете удалять свои сообщения
Вы не можете голосовать в опросах
Вы не можете прикреплять файлы к сообщениям
Вы не можете скачивать файлы