Пункт нaзначения 5 в 3Д / Finаl Dеstination 5 3D (Стивен Куэйл / Steven Quale) [2011, Триллер, Ужасы, BDrip-AVC] Half OverUnder / Вертикальная анаморфная стереопара

Ответить на тему
 
Автор
Сообщение

Волк ®

Пол:

Стаж: 9 лет 2 месяца

Сообщений: 852

Репутация: 333 [+] [-]

Откуда: Армения

Пост 25-Июл-2012 21:48

[Цитировать] 

-Пункт нaзначения 5 / Finаl Dеstination 5 Год выпуска: 2011
Страна: США (Warner Bros. Pictures, New Line Cinema, Practical Pictures)
Жанр: Триллер, Ужасы
Продолжительность: 01:31:48
Перевод: Профессиональный (дублированный) - Русский и Украинский
Русские субтитры: есть
Режиссер: Стивен Куэйл / Steven Quale-Роли исполняли / Дублировали: Сэм Лоутон - Николас Д’Агосто / Даниил Эльдаров
Молли Харпер - Эмма Белл
Питер Фридкин - Майлз Фишер / Евгений Вальц
Кэндис Хупер - Эллен Ро / Мария Иващенко
Оливия Касл - Жаклин МакИннес Вуд / Ирина Киреева
Айсэк Палмер - П.Дж. Бирн / Диомид Виноградов
Натан - Арлен Эскарпета / Денис Яковлев
Дэнис - Дэвид Кокнер / Константин Карасик
Агент Джим Блок - Кортни Б. Вэнс / Владислав Копп
Уильям Бладуорт - Тони Тодд / Олег Куценко
Рой - Брент Стейт / Юрий Маляров-Описание: У Сэма Лоутона происходит жуткое видение: подвесной мост, на котором он находится со своими друзьями, рушится, и многие люди, включая его самого, погибают. Сэм начинает паниковать и уговаривает своих друзей и ещё нескольких «счастливчиков» уйти с моста. И как раз вовремя: как и предвидел Сэм, мост рушится на их глазах и множество людей погибает. Однако Сэм и его девушка Молли понимают, что смерть дала им лишь отсрочку, так как выжившие начинают погибать один за другим. Он должен понять, как обманув смерть однажды, обмануть её ещё раз, прежде чем настанет его очередь.--Премьера: 4 августа 2011
Бюджет: $40 000 000
Кассовые сборы: $157 887 643

Проверено на встроенном плейере ТВ Samsung UE-C7000-- Качество: BDrip
Контейнер: MKV
Формат 3D: Half OverUnder / Вертикальная анаморфная стереопара
Порядок ракурсов: левый ракурс первый
Видео кодек: x264
Аудио кодек: AC3-Видео: AVC / 23,976 fps / 1920х1080p / 7114 Kbps
Аудио:
#1 - Русский / AC3 / 48 KHz / 5.1 ch / 640 Kbps
#2 - Украинский / AC3 / 48 KHz / 5.1 ch / 640 Kbps
#3 - Английский / AC3 / 48 KHz / 5.1 ch / 640 Kbps
Субтитры (SRT)
Внешние - Русские Форсированные (включены по умолчанию)
Вшитые softsub:
#1 - Русские Форсированные (включены по умолчанию)
#2 - Русские Полные
#3 - English Full

MediaInfo

General
UniqueID : 249777481804208130827896966807086708313 (0xBBE964A665F59B17BDC26CCF85043659)
Complete name : F:\Downloads\FinalDestination5(3D)2011.halfOU(Ash61)\FinalDestination5(3D)2011.halfOU(Ash61).mkv
Format : Matroska
File size : 5.91 GiB
Duration : 1h 31mn
Overall bit rate : 9 218 Kbps
Movie name : Final Destination 5 (3D) 2011 (by Ash61)
Encoded date : UTC 2012-06-27 07:35:44
Writing application : mkvmerge v3.4.0 ('Rapunzel') сборка от May 15 2010 09:38:20
Writing library : libebml v0.8.0 + libmatroska v0.9.0
Video
ID : 1
Format : AVC
Format/Info : Advanced Video Codec
Format profile : High@L4.1
Format settings, CABAC : Yes
Format settings, ReFrames : 4 frames
Codec ID : V_MPEG4/ISO/AVC
Duration : 1h 31mn
Bit rate : 7 114 Kbps
Width : 1 920 pixels
Height : 1 080 pixels
Display aspect ratio : 16:9
Frame rate : 23.976 fps
Color space : YUV
Chroma subsampling : 4:2:0
Bit depth : 8 bits
Scan type : Progressive
Bits/(Pixel*Frame) : 0.143
Stream size : 4.56 GiB (77%)
Title : BDrip by Ash61
Writing library : x264 core 119 r2106 07efeb4
Encoding settings : cabac=1 / ref=4 / deblock=1:-3:-3 / analyse=0x3:0x113 / me=umh / subme=9 / psy=1 / psy_rd=1.00:0.15 / mixed_ref=1 / me_range=16 / chroma_me=1 / trellis=2 / 8x8dct=1 / cqm=0 / deadzone=21,11 / fast_pskip=1 / chroma_qp_offset=-3 / threads=3 / sliced_threads=0 / nr=0 / decimate=1 / interlaced=0 / bluray_compat=0 / constrained_intra=0 / bframes=6 / b_pyramid=2 / b_adapt=2 / b_bias=0 / direct=3 / weightb=1 / open_gop=0 / weightp=2 / keyint=250 / keyint_min=23 / scenecut=40 / intra_refresh=0 / rc_lookahead=60 / rc=crf / mbtree=1 / crf=18.0 / qcomp=0.70 / qpmin=0 / qpmax=69 / qpstep=4 / ip_ratio=1.40 / aq=1:0.70
Language : English
Audio #1
ID : 2
Format : AC-3
Format/Info : Audio Coding 3
Mode extension : CM (complete main)
Codec ID : A_AC3
Duration : 1h 31mn
Bit rate mode : Constant
Bit rate : 640 Kbps
Channel(s) : 6 channels
Channel positions : Front: L C R, Side: L R, LFE
Sampling rate : 48.0 KHz
Bit depth : 16 bits
Compression mode : Lossy
Stream size : 420 MiB (7%)
Title : Дубляж
Language : Russian
Audio #2
ID : 3
Format : AC-3
Format/Info : Audio Coding 3
Mode extension : CM (complete main)
Codec ID : A_AC3
Duration : 1h 31mn
Bit rate mode : Constant
Bit rate : 640 Kbps
Channel(s) : 6 channels
Channel positions : Front: L C R, Side: L R, LFE
Sampling rate : 48.0 KHz
Bit depth : 16 bits
Compression mode : Lossy
Stream size : 420 MiB (7%)
Title : Дубляж
Language : Ukrainian
Audio #3
ID : 4
Format : AC-3
Format/Info : Audio Coding 3
Mode extension : CM (complete main)
Codec ID : A_AC3
Duration : 1h 31mn
Bit rate mode : Constant
Bit rate : 640 Kbps
Channel(s) : 6 channels
Channel positions : Front: L C R, Side: L R, LFE
Sampling rate : 48.0 KHz
Bit depth : 16 bits
Compression mode : Lossy
Stream size : 420 MiB (7%)
Title : Original
Language : English
Text #1
ID : 5
Format : UTF-8
Codec ID : S_TEXT/UTF8
Codec ID/Info : UTF-8 Plain Text
Title : Форсированные
Language : Russian
Text #2
ID : 6
Format : UTF-8
Codec ID : S_TEXT/UTF8
Codec ID/Info : UTF-8 Plain Text
Title : Полные
Language : Russian
Text #3
ID : 7
Format : UTF-8
Codec ID : S_TEXT/UTF8
Codec ID/Info : UTF-8 Plain Text
Title : Full
Language : English
Menu
00:00:00.000 : :01
00:09:51.341 : :02
00:20:22.763 : :03
00:30:36.543 : :04
00:40:56.996 : :05
00:51:19.076 : :06
01:00:55.777 : :07
01:09:02.847 : :08
01:22:35.576 : :09
01:26:23.303 : :10

Скриншоты


_________________
Мои раздачи
[Торрент-статистика]
[Профиль]  [ЛС] 
Показать сообщения:    
Ответить на тему

Текущее время: Сегодня 05:52

Часовой пояс: GMT + 4



Вы не можете начинать темы
Вы не можете отвечать на сообщения
Вы не можете редактировать свои сообщения
Вы не можете удалять свои сообщения
Вы не можете голосовать в опросах
Вы не можете прикреплять файлы к сообщениям
Вы не можете скачивать файлы