Мушкетеры в 3Д / The Three Musketeers 3D (Пол У. С. Андерсон / Paul W.S. Anderson) [2011, боевик, приключения, BDrip, 720p] OverUnder / Вертикальная стереопара

Ответить на тему
 
Автор
Сообщение

Волк ®

Пол:

Стаж: 9 лет

Сообщений: 809

Репутация: 316 [+] [-]

Откуда: Армения

Пост 16-Апр-2012 16:57

[Цитировать] 

Мушкетеры / The Three Musketeers Год выпуска: 2011
Страна
: США, Германия, Франция, Великобритания
Жанр:
Приключения, Боевик
Продолжительность: 01:50:31
Перевод: Профессиональный (полное дублирование)
Русские субтитры: есть-Режиссер:Пол У. С. Андерсон / Paul W.S. Anderson-В ролях:Логан Лерман, Милла Йовович, Мэттью Макфадьен, Рэй Стивенсон, Люк Эванс, Орландо Блум, Кристоф Вальц, Mads Mikkelsen, Габриэлла Уайльд, Джеймс Кордена, Джуно Темпл, Фредди Фокс, Тиль Швайгер...-Описание:Молодой д’Артаньян покинул родной дом и отправился в Париж, надеясь на место в полку мушкетёров. По случайности в один день он обидел сразу троих мушкетёров — Атоса, Портоса и Арамиса — и получил от всех троих вызовы на дуэль. Но дуэль была прервана появлением гвардейцев кардинала, которые хотели арестовать их за нарушение указа о запрете дуэлей. Д’Артаньян и три мушкетера победили превосходящего противника и стали друзьями. Теперь они должны остановить злобного Кардинала Ришелье и столкнутся с герцогом Бэкингемом, и предательницей Миледи Де Винтер.На встроенных ТВ-плейерах работать не будет!!!- -Качество: BDrip
Контейнер: MKV
Формат 3D: OverUnder / Вертикальная стереопара
Видео кодек: x264
Аудио кодек: AC3
Видео: AVC / 1280х1440p / 23,976 fps / ~7,5 Mbps
Аудио#1: Русский / AC3 / 48 KHz / 6 ch / 448 Kbps
Аудио#2: Украинский / AC3 / 48 KHz / 5.1 ch / 448 Kbps
Аудио#3: Английский / AC3 / 48 KHz / 5.1 ch / 640 Kbps

Скриншоты

MediaInfo

Общее
Уникальный идентификатор : 231958592438380577030141110254325031310 (0xAE8199934695BD31AEC4648FA78D618E)
Полное имя : D:\3D-RuGroup\TheThreeMusketeers.3D.2011.BD3DRip.720p.OU.x264.AC3.Rus.Ukr.Eng.El.mkv
Формат : Matroska
Версия формата : Version 2
Размер файла : 7,11 Гбайт
Продолжительность : 1 ч. 50 м.
Общий поток : 9212 Кбит/сек
Название фильма : TheThreeMusketeers.3D.2011.BD3DRip.720p.OU.x264.AC3.Rus.Ukr.Eng.El
Дата кодирования : UTC 2012-02-12 08:08:15
Программа кодирования : mkvmerge v3.4.0 ('Rapunzel') сборка от May 15 2010 09:38:20
Библиотека кодирования : libebml v0.8.0 + libmatroska v0.9.0
Видео
Идентификатор : 1
Формат : AVC
Формат/Информация : Advanced Video Codec
Профиль формата : High@L4.1
Параметр CABAC формата : Да
Параметр ReFrames формата : 4 кадра
Идентификатор кодека : V_MPEG4/ISO/AVC
Продолжительность : 1 ч. 50 м.
Битрейт : 7493 Кбит/сек
Ширина : 1280 пикселей
Высота : 1440 пикселей
Соотношение сторон : 0,889
Частота кадров : 23,976 кадра/сек
Цветовое пространство : YUV
Субдискретизация насыщенности : 4:2:0
Битовая глубина : 8 бит
Тип развёртки : Прогрессивная
Бит/(Пиксели*Кадры) : 0.170
Размер потока : 5,78 Гбайт (81%)
Заголовок : The Three Musketeers 3D by elephant (aka itsamna AnTo}{@)
Библиотека кодирования : x264 core 116 r2074 2641b9e
Настройки программы : cabac=1 / ref=4 / deblock=1:-3:-3 / analyse=0x3:0x133 / me=umh / subme=9 / psy=1 / psy_rd=1.00:0.15 / mixed_ref=1 / me_range=16 / chroma_me=1 / trellis=2 / 8x8dct=1 / cqm=0 / deadzone=21,11 / fast_pskip=1 / chroma_qp_offset=-3 / threads=3 / sliced_threads=0 / nr=0 / decimate=1 / interlaced=0 / bluray_compat=0 / constrained_intra=0 / bframes=6 / b_pyramid=2 / b_adapt=2 / b_bias=0 / direct=3 / weightb=1 / open_gop=0 / weightp=2 / keyint=250 / keyint_min=23 / scenecut=40 / intra_refresh=0 / rc_lookahead=60 / rc=crf / mbtree=1 / crf=18.0 / qcomp=0.60 / qpmin=10 / qpmax=69 / qpstep=4 / vbv_maxrate=50000 / vbv_bufsize=50000 / crf_max=0.0 / nal_hrd=none / ip_ratio=1.40 / aq=1:0.70
Default : Да
Forced : Нет
Аудио #1
Идентификатор : 2
Формат : AC-3
Формат/Информация : Audio Coding 3
Расширение режима : CM (complete main)
Идентификатор кодека : A_AC3
Продолжительность : 1 ч. 50 м.
Вид битрейта : Постоянный
Битрейт : 448 Кбит/сек
Каналы : 6 каналов
Расположение каналов : Front: L C R, Side: L R, LFE
Частота : 48,0 КГц
Битовая глубина : 16 бит
Метод сжатия : С потерями
Размер потока : 354 Мбайт (5%)
Заголовок : Dub
Язык : Russian
Default : Да
Forced : Нет
Аудио #2
Идентификатор : 3
Формат : AC-3
Формат/Информация : Audio Coding 3
Расширение режима : CM (complete main)
Идентификатор кодека : A_AC3
Продолжительность : 1 ч. 50 м.
Вид битрейта : Постоянный
Битрейт : 448 Кбит/сек
Каналы : 2 канала
Расположение каналов : Front: L R
Частота : 48,0 КГц
Битовая глубина : 16 бит
Метод сжатия : С потерями
Размер потока : 354 Мбайт (5%)
Заголовок : Line
Язык : Ukrainian
Default : Нет
Forced : Нет
Аудио #3
Идентификатор : 4
Формат : AC-3
Формат/Информация : Audio Coding 3
Расширение режима : CM (complete main)
Идентификатор кодека : A_AC3
Продолжительность : 1 ч. 50 м.
Вид битрейта : Постоянный
Битрейт : 640 Кбит/сек
Каналы : 6 каналов
Расположение каналов : Front: L C R, Side: L R, LFE
Частота : 48,0 КГц
Битовая глубина : 16 бит
Метод сжатия : С потерями
Размер потока : 506 Мбайт (7%)
Язык : English
Default : Нет
Forced : Нет
Текст #1
Идентификатор : 5
Формат : UTF-8
Идентификатор кодека : S_TEXT/UTF8
Идентификатор кодека/Информация : UTF-8 Plain Text
Заголовок : Полные
Язык : Russian
Default : Нет
Forced : Нет
Текст #2
Идентификатор : 6
Формат : UTF-8
Идентификатор кодека : S_TEXT/UTF8
Идентификатор кодека/Информация : UTF-8 Plain Text
Заголовок : Full
Язык : English
Default : Нет
Forced : Нет
Меню
00:00:00.000 : :01
00:06:09.786 : :02
00:12:20.406 : :03
00:17:31.592 : :04
00:23:52.181 : :05
00:31:28.678 : :06
00:35:56.488 : :07
00:42:31.549 : :08
00:47:04.613 : :09
00:53:17.319 : :10
00:59:14.634 : :11
01:04:40.043 : :12
01:08:33.109 : :13
01:14:24.418 : :14
01:21:04.610 : :15
01:27:36.918 : :16
01:36:09.681 : :17
01:42:27.433 : :18

_________________
Мои раздачи
[Торрент-статистика]
[Профиль]  [ЛС] 
Показать сообщения:    
Ответить на тему

Текущее время: Сегодня 22:48

Часовой пояс: GMT + 4



Вы не можете начинать темы
Вы не можете отвечать на сообщения
Вы не можете редактировать свои сообщения
Вы не можете удалять свои сообщения
Вы не можете голосовать в опросах
Вы не можете прикреплять файлы к сообщениям
Вы не можете скачивать файлы