Ржевский против Наполеона в 3D / 3Д (Марюс Вайсберг) [2011, комедия, BDrip-AVC] Half OverUnder / Вертикальная анаморфная стереопара

Ответить на тему
 
Автор
Сообщение

Волк ®

Пол:

Стаж: 9 лет

Сообщений: 812

Репутация: 316 [+] [-]

Откуда: Армения

Пост 16-Апр-2012 16:50

[Цитировать] 

Ржевский против Наполеона«В старом добром IIIД»
Год выпуска: 2011
Страна:
Россия, Украина
Жанр: комедия
Продолжительность: 01:23:06
Перевод: не требуется
Русские субтитры: нет-Режиссер:
Марюс Вайсберг
Сценаристы:
Андрей Яковлев, Михаил Савин, Владимир Зеленский
Оператор:
Ирек Хартович
Продюсеры:
Сергей Ливнев, Владимир Зеленский, Борис Шефир
Монтаж:
Дэвид Додсон
Композитор:
Владимир Сайко
В ролях:

Павел Деревянко, Владимир Зеленский, Светлана Ходченкова, Михаил Ефремов, Марат Башаров, Евгений Кошевой, Жан-Клод Ван Дамм, Анна Семенович, Анфиса Чехова, Михаил Галустян-Описание:
Чтобы развеять скуку, Наполеон Бонапарт затеял мировую войну. Не пропуская ни одной юбки, он оказывается со своей армией у ворот Первопрестольной. Русские полководцы решают внедрить к нему неприступную красавицу, la femme fatal, чтобы отвлечь узурпатора от захватнической деятельности. Только какая настоящая женщина устоит перед обаянием этого великого бабника? Ненастоящая!!! В смысле — переодетый мужчина! И такой мужчина есть — поручик Ржевский…-Проверено на встроенном плейере ТВ LG 42LW4500
-Качество: BDrip
Контейнер: MKV
Формат 3D: Anamorph OverUnder / Вертикальная анаморфная стереопара
Видео кодек: x264
Аудио кодек: AC3
Видео: AVC, 1920x1080, 23.976 кадр/сек, 11,5 Мбит/сек
Аудио: русский; AC3, 6 каналов, 640 Кбит/сек, 48,0 КГц (оригинал)

Знаете ли вы, что...

Фильм снимался на Украине с августа по октябрь 2010 года.
Съемочная группа работала на уникальных объектах: в кадре можно увидеть интерьеры и окрестности Воронцовского, Ливадийского и Александровского дворцов, а также театра «Сузирья», завода «Ленинская кузня» и Дома с химерами - официальной резиденции Президента Украины.
Москву 1812 года «изображала» Киево-Печерская лавра.
В ходе съемок было задействовано 17 различных локаций.
Сцены с Жан-Клодом Ван Даммом снимались ночью.
На проекте работало 12 костюмеров, а костюмы шили в 6 киевских частных дизайнерских ателье (украинские модельеры работали под надзором художника по костюмам Анастасии Нефедовой).
Обувь Наполеона также шилась на заказ в дизайнерских мастерских Киева. Голенища сапог украшены вышивкой, а подошвы оставляют на земле «говорящие» следы - NN.
Один из костюмов Наполеона состоит из 18-ти предметов одежды и аксессуаров, начиная от головного убора и заканчивая чулками и перевязью.
Эполеты экранного Наполеона – подлинное произведение ювелирного искусства: они выполнены из золотых цепей и витого золота.
Для фильма была модернизирована монограмма Наполеона: историческую монограмму преобразили, учитывая современные «тенденции».
Сапоги поручика Ржевского украшают необычные шпоры: вместо классических колесиков на них крепятся черепа со стразами. Всего для героя – в его мужской и женской ипостасях – было на заказ создано 17 пар обуви, в том числе уникальные кроссовки на шпильке.
Высота невероятных меховых головных уборов персонажа Татьяны Орловой достигает 70 см, а это выше, чем у английских королевских гвардейцев. Чтобы носить такую шапку, нужно учиться балансировать.
Для крепостных крестьян было сшито 100 костюмов с принтами на тему гравюр XIX века, изображающих Москву.
На солдатах отступающей французской армии можно заметить забавные детали одежды, выполненные из популярных клетчатых хозяйственных сумок – головные уборы, вещмешки, плащи, шорты и т.д. На них ушло в общей сложности 55 сумок.
В самой масштабной сцене фильма приняло участие около 500 актеров массовых сцен.
В фильм вошли более 10 специально поставленных танцевальных номеров.

СКРИНШОТЫ

MI

Код:
Общее
Уникальный идентификатор : 248046828381591283502543314480963107051 (0xBA9C14D93058687E860F83DA9F19B8EB)
Полное имя : G:\RzhevskyAgainstNapoleon.3D.2011.BD3DRip.Half.OU.x264.AC3.Rus.El.mkv
Формат : Matroska
Версия формата : Version 2
Размер файла : 7,17 Гбайт
Продолжительность : 1 ч. 23 м.
Общий поток : 12,4 Мбит/сек
Название фильма : Ржевский против Наполеона by itsamna aka elephant AnTo}{@
Дата кодирования : UTC 2012-04-01 22:51:44
Программа кодирования : mkvmerge v3.4.0 ('Rapunzel') сборка от May 15 2010 09:38:20
Библиотека кодирования : libebml v0.8.0 + libmatroska v0.9.0
Видео
Идентификатор : 1
Формат : AVC
Формат/Информация : Advanced Video Codec
Профиль формата : High@L4.1
Параметр CABAC формата : Да
Параметр ReFrames формата : 4 кадра
Идентификатор кодека : V_MPEG4/ISO/AVC
Продолжительность : 1 ч. 23 м.
Битрейт : 11,5 Мбит/сек
Ширина : 1920 пикселей
Высота : 1080 пикселей
Соотношение сторон : 16:9
Частота кадров : 23,976 кадра/сек
Цветовое пространство : YUV
Субдискретизация насыщенности : 4:2:0
Битовая глубина : 8 бит
Тип развёртки : Прогрессивная
Бит/(Пиксели*Кадры) : 0.231
Размер потока : 6,66 Гбайт (93%)
Заголовок : Ржевский против Наполеона by itsamna aka elephant AnTo}{@
Библиотека кодирования : x264 core 116 r2074 2641b9e
Настройки программы : cabac=1 / ref=4 / deblock=1:-3:-3 / analyse=0x3:0x133 / me=umh / subme=9 / psy=1 / psy_rd=1.00:0.15 / mixed_ref=1 / me_range=48 / chroma_me=1 / trellis=2 / 8x8dct=1 / cqm=0 / deadzone=21,11 / fast_pskip=0 / chroma_qp_offset=-3 / threads=3 / sliced_threads=0 / nr=0 / decimate=1 / interlaced=0 / bluray_compat=0 / constrained_intra=0 / bframes=6 / b_pyramid=2 / b_adapt=2 / b_bias=0 / direct=3 / weightb=1 / open_gop=0 / weightp=2 / keyint=250 / keyint_min=23 / scenecut=40 / intra_refresh=0 / rc_lookahead=60 / rc=crf / mbtree=1 / crf=18.0 / qcomp=0.70 / qpmin=0 / qpmax=69 / qpstep=4 / vbv_maxrate=50000 / vbv_bufsize=50000 / crf_max=0.0 / nal_hrd=none / ip_ratio=1.40 / aq=1:0.70
Язык : Russian
Default : Да
Forced : Нет
Аудио
Идентификатор : 2
Формат : AC-3
Формат/Информация : Audio Coding 3
Расширение режима : CM (complete main)
Идентификатор кодека : A_AC3
Продолжительность : 1 ч. 23 м.
Вид битрейта : Постоянный
Битрейт : 640 Кбит/сек
Каналы : 6 каналов
Расположение каналов : Front: L C R, Side: L R, LFE
Частота : 48,0 КГц
Битовая глубина : 16 бит
Метод сжатия : С потерями
Размер потока : 381 Мбайт (5%)
Язык : Russian
Default : Да
Forced : Нет
Меню
00:00:00.000 : :01
00:04:33.315 : :02
00:09:04.335 : :03
00:13:34.105 : :04
00:18:46.292 : :05
00:22:49.577 : :06
00:29:43.824 : :07
00:35:33.298 : :08
00:41:15.556 : :09
00:46:40.923 : :10
00:49:47.443 : :11
00:58:23.375 : :12
01:04:45.256 : :13
01:09:20.782 : :14
01:14:05.816 : :15
01:19:35.938 : :16

_________________
Мои раздачи
[Торрент-статистика]
[Профиль]  [ЛС] 

Sergus

Стаж: 8 лет 6 месяцев

Сообщений: 6

Репутация: 0 [+] [-]

Пост 05-Июн-2012 23:36 (спустя 1 месяц 19 дней)

[Цитировать] 

Не впечатлил фильм, ожидал большего. Если бы не 3D, досматривать бы не стал. А за раздачу спасибо!
[Торрент-статистика]
[Профиль]  [ЛС] 
Показать сообщения:    
Ответить на тему

Текущее время: Сегодня 18:07

Часовой пояс: GMT + 4



Вы не можете начинать темы
Вы не можете отвечать на сообщения
Вы не можете редактировать свои сообщения
Вы не можете удалять свои сообщения
Вы не можете голосовать в опросах
Вы не можете прикреплять файлы к сообщениям
Вы не можете скачивать файлы