Я, Франкенштейн в 3D / I, Frankenstein in 3D (Стюарт Битти / Stuart Beattie) [2014 г., фэнтези, боевик, приключения, BDRip 1080p] [Лицензия] [Half OverUnder / Вертикальная анаморфная стереопара]

Ответить на тему
 
Автор
Сообщение

TiZAr ®

Пол:

Стаж: 7 лет 4 месяца

Сообщений: 823

Репутация: 1160 [+] [-]

Откуда: Россия

Пост 04-Мар-2014 01:56

[Цитировать] 

-«In the battle between good and evil, an immortal holds the key»- Год выпуска: 2014
Страна: США, Австралия / Hopscotch Features, Lakeshore Entertainment
Жанр: фэнтези, боевик, приключения
Продолжительность: 01:33:04
Перевод: Профессиональный (полное дублирование)
Качество перевода: Лицензия
Субтитры: нет
Оригинальная аудиодорожка: нет
Навигация по главам: Есть
Режиссер: Стюарт Битти / Stuart Beattie- -Роли исполняли (дублировали):
Adam - Аарон Экхарт (Радик Мухаметзянов)
Terra - Ивонн Страховски
Leonore - Миранда Отто
Naberius - Билл Найи (Валерий Сторожик)
Gideon - Джай Кортни (Илья Исаев)
Zuriel - Сократис Отто (Илья Хвостиков)
Victor Frankenstein - Аден Янг (Илья Хвостиков)
Keziah - Кэйтлин Стэйси
Ophir - Махеш Джаду (Иван Жарков)
Helek - Стив Музакис
Carl Avery - Николас Белл
Barachel - Дениз Акдениз (Илья Хвостиков)
Levi - Крис Пэнг
Dekar - Кевин Гревье (Максим Пинскер)
Molokai - Брюс Спенс
Elizabeth Frankenstein - Вирджиния Ле Брун и др.

Описание:
Он — монстр. Он — двухсотлетний плод безумной фантазии своего создателя. Он — легенда. Мир, в котором он живет, населен древними горгульями и бессмертными демонами, которые сражаются за обладание человечеством. Величественные соборы скрывают огромные арсеналы, за дверьми научных лабораторий проводятся эксперименты по воскрешению мертвых. Война двух кланов могущественных существ достигает своего пика. И только он, Адам, монстр Франкенштейна, в силах ее остановить.
Премьера: 20 января 2014 (23 января 2014)
Релиз на Blu-Ray (DVD) (Россия): 4 марта 2014
Бюджет: $65 000 000
Кассовые сборы: $68 390 918

За исходный BD 3D спасибо TRAHTOZABR и
Релиз от:

Качество видео: BDRip 1080p | Сэмпл
Формат: MKV
Формат 3D: Half OverUnder / Вертикальная анаморфная стереопара
Порядок ракурсов: левый ракурс первый
Видео кодек: MPEG-4 (AVC)
Аудио кодек: AC3
Видео: AVC, 1920x1080 (16:9), 23.976 fps, 11.9 Mbps (0.239 bit/pixel)
Аудио: AC-3, 48.0 KHz, 6 ch, 640 Kbps, CBR (Russian)

MediaInfo

Код:
General
Unique ID                                : 187431388983340158545306334638000232033 (0x8D01F8F2E2381D8AA96129595F0AD661)
Complete name                            : E:\downloads\IFrankenstein(2013)3D-halfOU(Ash61).mkv
Format                                   : Matroska
Format version                           : Version 2
File size                                : 8.29 GiB
Duration                                 : 1h 33mn
Overall bit rate                         : 12.8 Mbps
Movie name                               : Я, Франкенштейн / I, Frankenstein (2013) 3D
Encoded date                             : UTC 2014-03-01 19:59:04
Writing application                      : mkvmerge v5.8.0 ('No Sleep / Pillow') built on Sep  2 2012 15:37:04
Writing library                          : libebml v1.2.3 + libmatroska v1.3.0
Video
ID                                       : 1
Format                                   : AVC
Format/Info                              : Advanced Video Codec
Format profile                           : High@L4.1
Format settings, CABAC                   : Yes
Format settings, ReFrames                : 4 frames
Codec ID                                 : V_MPEG4/ISO/AVC
Duration                                 : 1h 33mn
Bit rate                                 : 11.9 Mbps
Width                                    : 1 920 pixels
Height                                   : 1 080 pixels
Display aspect ratio                     : 16:9
Frame rate mode                          : Constant
Frame rate                               : 23.976 fps
Color space                              : YUV
Chroma subsampling                       : 4:2:0
Bit depth                                : 8 bits
Scan type                                : Progressive
Bits/(Pixel*Frame)                       : 0.239
Stream size                              : 7.71 GiB (93%)
Title                                    : BDRip by Ash61 (c BD 3D Rus)
Writing library                          : x264 core 129 r2245 bc13772
Encoding settings                        : cabac=1 / ref=4 / deblock=1:-3:-3 / analyse=0x3:0x113 / me=umh / subme=10 / psy=1 / psy_rd=1.00:0.15 / mixed_ref=1 / me_range=32 / chroma_me=1 / trellis=2 / 8x8dct=1 / cqm=0 / deadzone=21,11 / fast_pskip=1 / chroma_qp_offset=-3 / threads=12 / lookahead_threads=2 / sliced_threads=0 / nr=0 / decimate=1 / interlaced=0 / bluray_compat=0 / constrained_intra=0 / bframes=10 / b_pyramid=2 / b_adapt=2 / b_bias=0 / direct=3 / weightb=1 / open_gop=0 / weightp=2 / keyint=250 / keyint_min=23 / scenecut=40 / intra_refresh=0 / rc_lookahead=60 / rc=crf / mbtree=1 / crf=17.0 / qcomp=0.70 / qpmin=0 / qpmax=69 / qpstep=4 / vbv_maxrate=40000 / vbv_bufsize=30000 / crf_max=0.0 / nal_hrd=none / frame-packing=4 / ip_ratio=1.40 / aq=1:0.70
Language                                 : English
Default                                  : Yes
Forced                                   : No
Audio
ID                                       : 2
Format                                   : AC-3
Format/Info                              : Audio Coding 3
Mode extension                           : CM (complete main)
Format settings, Endianness              : Big
Codec ID                                 : A_AC3
Duration                                 : 1h 33mn
Bit rate mode                            : Constant
Bit rate                                 : 640 Kbps
Channel count                            : 6 channels
Channel positions                        : Front: L C R, Side: L R, LFE
Sampling rate                            : 48.0 KHz
Bit depth                                : 16 bits
Compression mode                         : Lossy
Stream size                              : 426 MiB (5%)
Title                                    : Дубляж - BD 3D Rus
Language                                 : Russian
Default                                  : Yes
Forced                                   : No
Menu
00:00:00.000                             : :1
00:12:24.077                             : :2
00:22:07.785                             : :3
00:33:21.958                             : :4
00:44:51.772                             : :5
00:56:45.527                             : :6
01:07:12.487                             : :7
01:21:14.661                             : :8

Для оценки 3Д - Анимированные скрины
















_________________
Не стоит обращать внимания на отсутствие сидов на моих раздачах. Все мои релизы мультитрекерные - нет сидов, включите DHT.
За релизами в HD качестве обращайтесь в личку, либо отписывайтесь в теме.
[Торрент-статистика]
[Профиль]  [ЛС] 
Показать сообщения:    
Ответить на тему

Текущее время: Сегодня 09:17

Часовой пояс: GMT + 4



Вы не можете начинать темы
Вы не можете отвечать на сообщения
Вы не можете редактировать свои сообщения
Вы не можете удалять свои сообщения
Вы не можете голосовать в опросах
Вы не можете прикреплять файлы к сообщениям
Вы не можете скачивать файлы