Ледниковый период 4: Континентальный дрейф в 3Д / Ice Age: Continental Drift 3D (Стив Мартино, Майк Т / Steve Martino, Mike) [2012, мультфильм, комедия, приключения, семейный, BDrip, 1080p] OverUnder / Вертикальная стереопара

Ответить на тему
 
Автор
Сообщение

Волк ®

Пол:

Стаж: 8 лет 11 месяцев

Сообщений: 809

Репутация: 316 [+] [-]

Откуда: Армения

Пост 03-Ноя-2012 22:49

[Цитировать] 

Лeдниковый пeриод 4: Кoнтинентальный дрeйф / Icе Аge: Cоntinental Drift- Год выпуска: 2012
Страна: США
Студия: Blue Sky Studios
Жанр: мультфильм, комедия, приключения, семейный
Продолжительность: 01:27:46
Перевод: Профессиональный (дублированный)
Русские субтитры: нет-Режиссер на русском: Стив Мартино, Майк Термайер
Режиссер на английском: Steve Martino, Mike Thurmeier-В ролях: Рэй Романо, Джон Легуизамо, Куин Латифа, Дэнис Лири, Джош Пек, Питер Динклэйдж, Кеке Палмер, Дженнифер Лопез, Ник Фрост, Азиз Ансари-Роли озвучивали: Степан Старчиков, Антон Комолов, Ольга Шелест, Александр Груздев, Иван Охлобыстин-Описание: После приключений под землей прошло семь лет. Случился дрейф континентов. Главные герои мультфильма, отделённые от стада, вынуждены использовать айсберг в качестве плота. Они пересекают океан и попадают в неизвестные им ранее земли с экзотическими животными и пиратами, враждебно настроенными к ним. Скрэту удаётся получить свой жёлудь, но он перемещается в новые для него земли.-Сэмпл: http://www.sendspace.com/file/licspo-Качество: BDrip
Контейнер: MKV
Формат 3D: OverUnder / Вертикальная стереопара
Порядок ракурсов: левый ракурс первый
Видео кодек: x264
Аудио кодек: DTS
Видео: AVC / 23,976 fps / 1920х1600 / 18.8 Mbps
Аудио: Русский / DTS / 48 KHz / 5.1 ch / 755 Kbps
Аудио 2: Украинский / AC3 / 48 KHz / 5.1 ch / 448 Kbps
Аудио 3: Английский / DTS / 48 KHz / 7.1 ch / 1510 Kbps-ВНИМАНИЕ ! На встроенных ТВ-плейерах работать не будет!!!

MediaInfo

General
Unique ID : 239247517590601657155269416945874409518 (0xB3FD6554C641248080B637C6867C982E)
Complete name : D:\закачки\Ice Age Continental Drift.mkv
Format : Matroska
Format version : Version 2
File size : 13.5 GiB
Duration : 1h 27mn
Overall bit rate mode : Variable
Overall bit rate : 22.0 Mbps
Encoded date : UTC 2012-10-28 19:37:51
Writing application : mkvmerge v3.4.0 ('Rapunzel') сборка от May 15 2010 09:38:20
Writing library : libebml v0.8.0 + libmatroska v0.9.0
Video
ID : 1
Format : AVC
Format/Info : Advanced Video Codec
Format profile : High@L5.0
Format settings, CABAC : Yes
Format settings, ReFrames : 4 frames
Codec ID : V_MPEG4/ISO/AVC
Duration : 1h 27mn
Bit rate : 18.8 Mbps
Width : 1 920 pixels
Height : 1 600 pixels
Display aspect ratio : 1.200
Frame rate : 23.976 fps
Color space : YUV
Chroma subsampling : 4:2:0
Bit depth : 8 bits
Scan type : Progressive
Bits/(Pixel*Frame) : 0.255
Stream size : 11.5 GiB (85%)
Title : Rip by SeRoGa00
Writing library : x264 core 128 r2216kMod 198a7ea
Encoding settings : cabac=1 / ref=4 / deblock=1:-3:-3 / analyse=0x3:0x113 / me=umh / subme=9 / psy=1 / fade_compensate=0.00 / psy_rd=1.00:0.15 / mixed_ref=1 / me_range=16 / chroma_me=1 / trellis=2 / 8x8dct=1 / cqm=0 / deadzone=21,11 / fast_pskip=1 / chroma_qp_offset=-3 / threads=9 / lookahead_threads=1 / sliced_threads=0 / nr=0 / decimate=1 / interlaced=0 / bluray_compat=0 / constrained_intra=0 / bframes=6 / b_pyramid=2 / b_adapt=2 / b_bias=0 / direct=3 / weightb=1 / open_gop=0 / weightp=2 / keyint=250 / keyint_min=23 / scenecut=40 / intra_refresh=0 / rc_lookahead=60 / rc=crf / mbtree=1 / crf=18.0000 / qcomp=0.60 / qpmin=10 / qpmax=69 / qpstep=4 / vbv_maxrate=40000 / vbv_bufsize=40000 / crf_max=0.0 / nal_hrd=none / ip_ratio=1.40 / aq=1:1.00
Language : English
Default : Yes
Forced : No
Audio #1
ID : 2
Format : DTS
Format/Info : Digital Theater Systems
Codec ID : A_DTS
Duration : 1h 27mn
Bit rate mode : Constant
Bit rate : 755 Kbps
Channel(s) : 6 channels
Channel positions : Front: L C R, Side: L R, LFE
Sampling rate : 48.0 KHz
Bit depth : 24 bits
Compression mode : Lossy
Stream size : 474 MiB (3%)
Language : Russian
Default : Yes
Forced : No
Audio #2
ID : 3
Format : AC-3
Format/Info : Audio Coding 3
Mode extension : CM (complete main)
Format settings, Endianness : Big
Codec ID : A_AC3
Duration : 1h 27mn
Bit rate mode : Constant
Bit rate : 448 Kbps
Channel(s) : 6 channels
Channel positions : Front: L C R, Side: L R, LFE
Sampling rate : 48.0 KHz
Bit depth : 16 bits
Compression mode : Lossy
Stream size : 281 MiB (2%)
Language : Ukrainian
Default : No
Forced : No
Audio #3
ID : 4
Format : DTS
Format/Info : Digital Theater Systems
Format profile : MA / Core
Codec ID : A_DTS
Duration : 1h 27mn
Bit rate mode : Variable
Bit rate : 1 597 Kbps / 1 510 Kbps
Channel(s) : 8 channels / 6 channels
Channel positions : Front: L C R, Side: L R, Back: L R, LFE / Front: L C R, Side: L R, LFE
Sampling rate : 48.0 KHz
Bit depth : 24 bits
Compression mode : Lossless / Lossy
Language : English
Default : No
Forced : No

Скриншоты



_________________
Мои раздачи
[Торрент-статистика]
[Профиль]  [ЛС] 
Показать сообщения:    
Ответить на тему

Текущее время: Сегодня 05:28

Часовой пояс: GMT + 4



Вы не можете начинать темы
Вы не можете отвечать на сообщения
Вы не можете редактировать свои сообщения
Вы не можете удалять свои сообщения
Вы не можете голосовать в опросах
Вы не можете прикреплять файлы к сообщениям
Вы не можете скачивать файлы