Чудеса океана в 3Д / Ocean Wonderland 3D (Жан-Жак Мантелло / Jean-Jacques Mantello) [2003, Документальный, Видовой, BDrip-AVC] Half OverUnder / Вертикальная анаморфная стереопара

Ответить на тему
 
Автор
Сообщение

Волк ®

Пол:

Стаж: 6 лет 2 месяца

Сообщений: 692

Репутация: 297 [+] [-]

Откуда: Армения

Пост 15-Янв-2013 14:27

[Цитировать] 

Чудеса океанаOcean Wonderland- Год выпуска: 2003
Страна: Франция (3D Entertainment, Jean-Michelle Cousteau)
Жанр: Документальный, Видовой
Продолжительность: 00:40:38
Перевод: Профессиональный (дублированный)
Русские субтитры: нет-Режиссер: Жан-Жак Мантелло / Jean-Jacques Mantello-Описание: "«Чудеса океана» — первый трехмерный подводный широкоформатный фильм, целиком снятый с использованием цифровых технологий. Благодаря этим технологиям, большая часть кадров картины демонстрирует подводный мир в естественном освещении.Основная тема фильма, снятого на Большом Барьерном рифе и Багамах, — невероятное разнообразие морской жизни на коралловых рифах и поражающая воображение красота бесчисленных вариаций самих кораллов. Основная миссия — подчеркнуть важную роль коралловых колоний в поддержании экологического равновесия на нашей планете, и предупредить людей об опасности, что грозит с их уничтожением."-Доп. информация: Как зачастую при съёмке на две камеры, имеется разбаланс между ракурсами по цвето-яркости и чёткости.-Проверено на встроенном плейере ТВ Samsung UE-C7000- -Качество: BDrip
Контейнер: MKV
Формат 3D: Half OverUnder / Вертикальная анаморфная стереопара
Порядок ракурсов: левый ракурс первый
Видео кодек: x264
Аудио кодек: AC3
Видео: AVC / 1920х1080p / 23,976 fps / 16.7 Mbps
Аудио#1: Русский / AC3 / 48 KHz / 5.1 ch / 448 Kbps
Аудио#2: Английский / AC3 / 48 KHz / 5.1 ch / 640 Kbps
Субтитры: Отсутствуют

MediaInfo

General
UniqueID : 233466855920231119451549586452837487744 (0xAFA414B4CE2E3BA9B87C07DFB74AD480)
Complete name : F:\Downloads\OceanWonderland(3D)2003.halfOU(ash61).mkv
Format : Matroska
File size : 5.14 GiB
Duration : 40mn 39s
Overall bit rate : 18.1 Mbps
Movie name : Ocean Wonderland (3D) 2003 (ash61)
Encoded date : UTC 2012-03-14 11:44:50
Writing application : mkvmerge v3.4.0 ('Rapunzel') сборка от May 15 2010 09:38:20
Writing library : libebml v0.8.0 + libmatroska v0.9.0
Video
ID : 1
Format : AVC
Format/Info : Advanced Video Codec
Format profile : High@L4.1
Format settings, CABAC : Yes
Format settings, ReFrames : 4 frames
Format settings, GOP : M=1, N=16
Codec ID : V_MPEG4/ISO/AVC
Duration : 40mn 39s
Bit rate : 16.7 Mbps
Width : 1 920 pixels
Height : 1 080 pixels
Display aspect ratio : 16:9
Frame rate : 23.976 fps
Color space : YUV
Chroma subsampling : 4:2:0
Bit depth : 8 bits
Scan type : Progressive
Bits/(Pixel*Frame) : 0.335
Stream size : 4.73 GiB (92%)
Title : BDrip by ash61
Writing library : x264 core 119 r2106 07efeb4
Encoding settings : cabac=1 / ref=4 / deblock=1:-3:-3 / analyse=0x3:0x113 / me=umh / subme=9 / psy=1 / psy_rd=1.00:0.15 / mixed_ref=1 / me_range=16 / chroma_me=1 / trellis=2 / 8x8dct=1 / cqm=0 / deadzone=21,11 / fast_pskip=1 / chroma_qp_offset=-3 / threads=3 / sliced_threads=0 / nr=0 / decimate=1 / interlaced=0 / bluray_compat=0 / constrained_intra=0 / bframes=6 / b_pyramid=2 / b_adapt=2 / b_bias=0 / direct=3 / weightb=1 / open_gop=0 / weightp=2 / keyint=250 / keyint_min=23 / scenecut=40 / intra_refresh=0 / rc_lookahead=60 / rc=crf / mbtree=1 / crf=18.0 / qcomp=0.70 / qpmin=0 / qpmax=69 / qpstep=4 / vbv_maxrate=40000 / vbv_bufsize=40000 / crf_max=0.0 / nal_hrd=none / ip_ratio=1.40 / aq=1:0.70
Audio #1
ID : 2
Format : AC-3
Format/Info : Audio Coding 3
Mode extension : CM (complete main)
Codec ID : A_AC3
Duration : 40mn 39s
Bit rate mode : Constant
Bit rate : 448 Kbps
Channel(s) : 6 channels
Channel positions : Front: L C R, Side: L R, LFE
Sampling rate : 48.0 KHz
Bit depth : 16 bits
Compression mode : Lossy
Stream size : 130 MiB (2%)
Title : Дубляж
Language : Russian
Audio #2
ID : 3
Format : AC-3
Format/Info : Audio Coding 3
Mode extension : CM (complete main)
Codec ID : A_AC3
Duration : 40mn 39s
Bit rate mode : Constant
Bit rate : 640 Kbps
Channel(s) : 6 channels
Channel positions : Front: L C R, Side: L R, LFE
Sampling rate : 48.0 KHz
Bit depth : 16 bits
Compression mode : Lossy
Stream size : 186 MiB (4%)
Language : English
Menu
00:00:00.000 : :1
00:06:44.738 : :2
00:10:22.163 : :3
00:14:43.508 : :4
00:20:04.870 : :5
00:25:03.085 : :6
00:31:28.178 : :7
00:37:36.546 : :8
[Торрент-статистика]
[Профиль]  [ЛС] 
Показать сообщения:    
Ответить на тему

Текущее время: Сегодня 14:05

Часовой пояс: GMT + 4



Вы не можете начинать темы
Вы не можете отвечать на сообщения
Вы не можете редактировать свои сообщения
Вы не можете удалять свои сообщения
Вы не можете голосовать в опросах
Вы не можете прикреплять файлы к сообщениям
Вы не можете скачивать файлы