Большое путешествие вглубь океанов в 3Д / OceanWorld 3D (Жан-Жак Мантелло / Jean-Jacques Mantell) [2009, Документальный, BDrip-AVC] Half OverUnder / Вертикальная анаморфная стереопара

Ответить на тему
 
Автор
Сообщение

Волк ®

Пол:

Стаж: 6 лет 10 месяцев

Сообщений: 689

Репутация: 300 [+] [-]

Откуда: Армения

Пост 15-Янв-2013 13:32

[Цитировать] 

Большое путешествие вглубь океанов
OceanWorld
-Год выпуска: 2009
Страна: Великобритания (Wild Bunch, 3D Entertainment)
Жанр: Документальный
Продолжительность: 01:22:06
Перевод: Профессиональный (дублированный)
Русские субтитры: нет-Режиссер: Жан-Жак Мантелло / Jean-Jacques Mantello-Рассказчик на русском: Юлия Рутберг
Рассказчик на оригинале: Марион Котийяр-Описание: Океан — колыбель жизни и громадная часть планеты Земля. Богатый подводный мир, его законы, сокровища и жизнь обитателей до сих пор остаются загадкой для человечества. Фильм погружает зрителей в морские глубины и открывает тайны и невероятную красоту океана. И под толщей воды, куда не проникают лучи света, и на солнечных коралловых рифах у самого берега — везде бурлит удивительная жизнь, скрытая от глаз человека. Живописные подводные ландшафты превосходят самые смелые фантазии человека.А жизнь обитателей моря — насыщенная, опасная, и такая многообразная, — раскрывается во всем своем великолепии и красочных деталях. «Большое путешествие вглубь океанов 3D» — первый документальный фильм, полностью снятый в формате Digital 3D. Новейшая технология съемок полностью стирает границу между экраном и зрителем, делает изображение объемным и реалистичным на сто процентов.Уникальные подводные съемки велись на расстоянии «вытянутой руки» и проходили в 15 морях и 3 океанах знаменитой командой.-Доп. информация: Очень красивый и интересный "старый" (только сейчас выкладывается стереопара) 3Д фильм.
К сожалению, качество картинки исходного БД оставляет желать лучшего (при внимательном рассмотрении стоп-кадров можно заметить высокую "шумность" и блочность). Также имеется цвето-яркостный разбаланс между ракурсами (как зачастую бывает на доках, снятых двумя камерами - всё можно увидеть на скринах).-Проверено на встроенном плейере ТВ Samsung UE-C7000- -Качество: BDrip
Контейнер: MKV
Формат 3D: Half OverUnder / Вертикальная анаморфная стереопара
Порядок ракурсов: левый ракурс первый
Видео кодек: x264
Аудио кодек: AC3
Видео: AVC / 1920х1080p / 23,976 fps / 17.2 Mbps
Аудио#1: Русский / AC3 / 48 KHz / 5.1 ch / 640 Kbps
Аудио#2: Английский / AC3 / 48 KHz / 5.1 ch / 640 Kbps
Субтитры: Отсутствуют

MediaInfo

General
UniqueID : 231994763483922746314445508277605585042 (0xAE8890F20E2DFE7C9D345E9168155092)
Complete name : F:\Downloads\OceanWorld(3D)2009.halfOU(ash61).mkv
Format : Matroska
File size : 10.8 GiB
Duration : 1h 22mn
Overall bit rate : 18.9 Mbps
Movie name : OceanWorld (3D) 2009 (Ash61)
Encoded date : UTC 2012-03-05 07:58:53
Writing application : mkvmerge v3.4.0 ('Rapunzel') сборка от May 15 2010 09:38:20
Writing library : libebml v0.8.0 + libmatroska v0.9.0
Video
ID : 1
Format : AVC
Format/Info : Advanced Video Codec
Format profile : High@L4.1
Format settings, CABAC : Yes
Format settings, ReFrames : 4 frames
Codec ID : V_MPEG4/ISO/AVC
Duration : 1h 22mn
Bit rate : 17.2 Mbps
Width : 1 920 pixels
Height : 1 080 pixels
Display aspect ratio : 16:9
Frame rate : 23.976 fps
Color space : YUV
Chroma subsampling : 4:2:0
Bit depth : 8 bits
Scan type : Progressive
Bits/(Pixel*Frame) : 0.346
Stream size : 9.87 GiB (91%)
Title : BDrip by Ash61
Writing library : x264 core 119 r2106 07efeb4
Encoding settings : cabac=1 / ref=4 / deblock=1:0:0 / analyse=0x3:0x113 / me=umh / subme=9 / psy=1 / psy_rd=1.00:0.15 / mixed_ref=1 / me_range=16 / chroma_me=1 / trellis=2 / 8x8dct=1 / cqm=0 / deadzone=21,11 / fast_pskip=1 / chroma_qp_offset=-3 / threads=3 / sliced_threads=0 / nr=0 / decimate=1 / interlaced=0 / bluray_compat=0 / constrained_intra=0 / bframes=6 / b_pyramid=2 / b_adapt=2 / b_bias=0 / direct=3 / weightb=1 / open_gop=0 / weightp=2 / keyint=250 / keyint_min=23 / scenecut=40 / intra_refresh=0 / rc_lookahead=60 / rc=crf / mbtree=1 / crf=18.0 / qcomp=0.60 / qpmin=10 / qpmax=69 / qpstep=4 / vbv_maxrate=40000 / vbv_bufsize=40000 / crf_max=0.0 / nal_hrd=none / ip_ratio=1.40 / aq=1:1.00
Audio #1
ID : 2
Format : AC-3
Format/Info : Audio Coding 3
Mode extension : CM (complete main)
Codec ID : A_AC3
Duration : 1h 22mn
Bit rate mode : Constant
Bit rate : 640 Kbps
Channel(s) : 6 channels
Channel positions : Front: L C R, Side: L R, LFE
Sampling rate : 48.0 KHz
Bit depth : 16 bits
Compression mode : Lossy
Stream size : 376 MiB (3%)
Title : Дубляж
Language : Russian
Audio #2
ID : 3
Format : AC-3
Format/Info : Audio Coding 3
Mode extension : CM (complete main)
Codec ID : A_AC3
Duration : 1h 22mn
Bit rate mode : Constant
Bit rate : 640 Kbps
Channel(s) : 6 channels
Channel positions : Front: L C R, Side: L R, LFE
Sampling rate : 48.0 KHz
Bit depth : 16 bits
Compression mode : Lossy
Stream size : 376 MiB (3%)
Language : English
Menu
00:00:00.000 : :01
00:04:51.625 : :02
00:06:31.725 : :03
00:11:23.016 : :04
00:14:24.322 : :05
00:17:46.065 : :06
00:21:07.933 : :07
00:25:23.105 : :08
00:27:25.018 : :09
00:29:21.760 : :10
00:34:55.510 : :11
00:38:03.656 : :12
00:46:40.589 : :13
00:50:33.739 : :14
01:01:56.338 : :15
01:04:59.729 : :16
01:12:08.950 : :17
01:15:56.469 : :18
[Торрент-статистика]
[Профиль]  [ЛС] 

ФИЛИМОН

Пол:

Стаж: 5 лет 8 месяцев

Сообщений: 2

Репутация: 0 [+] [-]

Откуда: Россия

Пост 19-Янв-2013 20:33 (спустя 4 дня)

[Цитировать] 

Волк, спасибо за релиз! Очень хорошие фильмы, смотрибельно!
[Торрент-статистика]
[Профиль]  [ЛС] 

Волк ®

Пол:

Стаж: 6 лет 10 месяцев

Сообщений: 689

Репутация: 300 [+] [-]

Откуда: Армения

Пост 19-Янв-2013 20:52 (спустя 18 минут)

[Цитировать] 

ФИЛИМОН, Пожалуста.
[Торрент-статистика]
[Профиль]  [ЛС] 

mahi

Стаж: 4 года 11 месяцев

Сообщений: 1

Репутация: 0 [+] [-]

Пост 03-Окт-2013 14:40 (спустя 8 месяцев 14 дней)

[Цитировать] 

Полюбуйтесь маленькими стайками разноцветных рыбок, которые, кажется, вот-вот заплывут в вашу гостиную! Вы сможете рассмотреть вблизи кальмара и ловкого осьминога, восхитительного ската-манту, а также подружиться с дельфинами и черепахами — прямо на собственном диване! Снятый с помощью 3D-камеры "Удивительный океан 3D" станет захватывающим приключением для всей семьи. Настоящее удовольствие для всех, кто стремится к новым открытиям! А выбрав третью аудио-дорожку вы сможете отключить повествование и насладиться потрясающими кадрами фильма под звуки музыки.

_________________
Testking http://www.test-king.me/
ccna video ccna video
[Торрент-статистика]
[Профиль]  [ЛС] 

Geolog

Стаж: 6 лет 8 месяцев

Сообщений: 3

Репутация: 1 [+] [-]

Пост 03-Дек-2013 06:35 (спустя 1 месяц 30 дней)

[Цитировать] 

Спасибо огромное!!!!!
[Торрент-статистика]
[Профиль]  [ЛС] 
Показать сообщения:    
Ответить на тему

Текущее время: Сегодня 11:30

Часовой пояс: GMT + 4



Вы не можете начинать темы
Вы не можете отвечать на сообщения
Вы не можете редактировать свои сообщения
Вы не можете удалять свои сообщения
Вы не можете голосовать в опросах
Вы не можете прикреплять файлы к сообщениям
Вы не можете скачивать файлы