Вселенная: 7 чудес Солнечной системы в 3Д / Universe: 7 Wonders of the Solar System 3D [2010, документальный, BDrip, 1080p] OverUnder / Вертикальная стереопара

Ответить на тему
 
Автор
Сообщение

Волк ®

Пол:

Стаж: 6 лет 2 месяца

Сообщений: 692

Репутация: 297 [+] [-]

Откуда: Армения

Пост 14-Янв-2013 23:27

[Цитировать] 

Вселенная: 7 чудес Солнечной системы / Universe: 7 Wonders of the Solar System- Год выпуска: 2010
Страна: США
Студия: A&E Home Video
Жанр: документальный
Продолжительность: 00:44:04
Перевод: Одноголосый закадровый (Юрий Сербин)
Русские субтитры: нет-Описание: Этот Мир не похож на всё, что вы видели или о чём читали.Наша Галактика стала домом для семи самых невероятных,потрясающих и таинственных феноменов во Вселенной!!!-We are in the midst of the greatest era of space discovery. Twenty first-century spacecraft and sophisticated imaging technology are venturing into uncharted territory every day, and much of the extraordinary phenomena are happening right in our own cosmic backyard.
Take an exhilarating, unprecedented 3D tour of the seven most amazing wonders of our solar system, beginning with a trip to Enceladus, one of Saturn s outer moons, where icy geysers spout from its surface. Then venture to Saturn s famous rings, which contain mountain ranges that rival the Alps; dive into Jupiter s Great Red Spot, the eye of the biggest storm in the solar system; soar through the Asteroid Belt, made of millions of rocks left over from the formation of the solar system; trek up Mount Olympus, the largest volcano located on Mars; have a close encounter with the searing surface of the sun; and finish the journey by exploring our very own home planet Earth.-Качество: BDrip
Контейнер: MKV
Формат 3D: OverUnder / Вертикальная стереопара
Порядок ракурсов: левый ракурс первый
Видео кодек: x264
Аудио кодек: DTS
Видео: AVC / 1920х2160 / 23,976 кадр/сек / 22,4 Мбит/сек
Аудио 1: Русский / DTS / 48 KHz / 5.1 ch / 1510 Kbps
Аудио 2: Английский / DTS / 48 KHz / 5.1 ch / 1510 Kbps-На встроенных ТВ-плейерах работать не будет!!!-

MediaInfo

General
Complete name : D:\3D Документальные передачи\Вселенная 7 чудес Солнечной системы.mkv
Format : Matroska
File size : 7.99 GiB
Duration : 44mn 4s
Overall bit rate : 26.0 Mbps
Encoded date : UTC 2012-02-27 17:02:28
Writing application : mkvmerge v3.4.0 ('Rapunzel') сборка от May 15 2010 09:38:20
Writing library : libebml v0.8.0 + libmatroska v0.9.0
Video
ID : 1
Format : AVC
Format/Info : Advanced Video Codec
Format profile : High@L5.0
Format settings, CABAC : Yes
Format settings, ReFrames : 5 frames
Muxing mode : Container profile=Unknown@5.0
Codec ID : V_MPEG4/ISO/AVC
Duration : 44mn 4s
Bit rate : 22.4 Mbps
Width : 1 920 pixels
Height : 2 160 pixels
Display aspect ratio : 0.889
Frame rate : 23.976 fps
Color space : YUV
Chroma subsampling : 4:2:0
Bit depth : 8 bits
Scan type : Progressive
Bits/(Pixel*Frame) : 0.225
Stream size : 6.90 GiB (86%)
Writing library : x264 core 119 r2106 07efeb4
Encoding settings : cabac=1 / ref=5 / deblock=1:-3:-3 / analyse=0x3:0x113 / me=umh / subme=9 / psy=1 / psy_rd=1.00:0.15 / mixed_ref=1 / me_range=16 / chroma_me=1 / trellis=2 / 8x8dct=1 / cqm=0 / deadzone=21,11 / fast_pskip=1 / chroma_qp_offset=-3 / threads=6 / sliced_threads=0 / nr=0 / decimate=1 / interlaced=0 / bluray_compat=0 / constrained_intra=0 / bframes=4 / b_pyramid=2 / b_adapt=2 / b_bias=0 / direct=3 / weightb=1 / open_gop=0 / weightp=2 / keyint=250 / keyint_min=23 / scenecut=40 / intra_refresh=0 / rc_lookahead=40 / rc=crf / mbtree=1 / crf=18.0 / qcomp=0.60 / qpmin=10 / qpmax=69 / qpstep=4 / vbv_maxrate=40000 / vbv_bufsize=40000 / crf_max=0.0 / nal_hrd=none / ip_ratio=1.40 / aq=1:1.00
Audio #1
ID : 2
Format : DTS
Format/Info : Digital Theater Systems
Codec ID : A_DTS
Duration : 44mn 4s
Bit rate mode : Constant
Bit rate : 1 510 Kbps
Channel(s) : 6 channels
Channel positions : Front: L C R, Side: L R, LFE
Sampling rate : 48.0 KHz
Bit depth : 16 bits
Stream size : 476 MiB (6%)
Language : Russian
Audio #2
ID : 3
Format : DTS
Format/Info : Digital Theater Systems
Codec ID : A_DTS
Duration : 44mn 4s
Bit rate mode : Constant
Bit rate : 1 510 Kbps
Channel(s) : 6 channels
Channel positions : Front: L C R, Side: L R, LFE
Sampling rate : 48.0 KHz
Bit depth : 24 bits
Stream size : 476 MiB (6%)
Language : English

Скриншоты

[Торрент-статистика]
[Профиль]  [ЛС] 

DarthNihilus

Пол:

Стаж: 6 лет 2 месяца

Сообщений: 1069

Репутация: 166 [+] [-]

Откуда: Антарктида

Пост 15-Янв-2013 12:20 (спустя 12 часов)

[Цитировать] 

WOW!!!
Посчитайте кто-то, сколько раз тут будет слово "эволюция" ab

_________________
[Нет сидов - включите DHT]
[Торрент-статистика]
[Профиль]  [ЛС] 

ФИЛИМОН

Пол:

Стаж: 5 лет

Сообщений: 2

Репутация: 0 [+] [-]

Откуда: Россия

Пост 31-Янв-2013 16:16 (спустя 16 дней)

[Цитировать] 

Волк, Благодарю за релиз!
[Торрент-статистика]
[Профиль]  [ЛС] 

Волк ®

Пол:

Стаж: 6 лет 2 месяца

Сообщений: 692

Репутация: 297 [+] [-]

Откуда: Армения

Пост 31-Янв-2013 22:56 (спустя 6 часов)

[Цитировать] 

ФИЛИМОН, aa
[Торрент-статистика]
[Профиль]  [ЛС] 
Показать сообщения:    
Ответить на тему

Текущее время: Сегодня 14:18

Часовой пояс: GMT + 4



Вы не можете начинать темы
Вы не можете отвечать на сообщения
Вы не можете редактировать свои сообщения
Вы не можете удалять свои сообщения
Вы не можете голосовать в опросах
Вы не можете прикреплять файлы к сообщениям
Вы не можете скачивать файлы