Коралловый риф в 3Д / Faszination Korallenriff 3D (Бенжамин Краузе / Benjamin Krause) [2011, документальный, видовой, BDrip-AVC] Half OverUnder / Вертикальная анаморфная стереопара

Ответить на тему
 
Автор
Сообщение

Волк ®

Пол:

Стаж: 6 лет 10 месяцев

Сообщений: 689

Репутация: 300 [+] [-]

Откуда: Армения

Пост 15-Янв-2013 14:12

[Цитировать] 

Коралловый риф 3D
Faszination Korallenriff 3D
- Год выпуска: 2011
Страна: Германия
Жанр: документальный
Продолжительность: 00:44:40
Перевод:Одноголосый закадровый-Над фильмом работали:Бенжамин Краузе и др.-Описание:
Красивый и расслабляющий фильм в формате 3D приглашает Вас отправится в коралловое путешествие. Яркие краски обитателей кораллового Мира, флора и фауна которую могут увидеть только профессиональные ныряльщики. От шаровых рыб, морских ежей, до гигантский акул. Вы будете удивлены многочисленности глубоководных жителей нашей планеты. Самые современные 3D-технологии показывают вам подводный мир в вашей комнате отдыха.-Качество: BDrip
Контейнер: MKV
Формат 3D: Anamorph OverUnder / Вертикальная анаморфная стереопара
Видео кодек: x264
Аудио кодек: AC3
Видео: AVC, 1920x1080, 23.976 кадр/сек, 18,2 Мбит/сек
Аудио 1: русский; AC3, 6 каналов, 640 Кбит/сек, 48,0 КГц (Одноголосый закадровый)
Аудио 2: английский; AC3, 6 каналов, 448 Кбит/сек, 48,0 КГц (Оригинал)-

-

СКРИНШОТЫ

MI

Код:
Общее
Уникальный идентификатор : 215758373139606165205071053629843563547 (0xA2518D18B3E823FEAC0F453C3D07E41B)
Полное имя : D:\3D-RuGroup\Документальные\CoralReef.3D.2011.BD3DRip.Half.OU.x264.AC3.Rus.Eng.El.mkv
Формат : Matroska
Версия формата : Version 2
Размер файла : 6,14 Гбайт
Продолжительность : 44 м.
Общий поток : 19,7 Мбит/сек
Название фильма : CoralReef.3D.2011.BD3DRip.Half.OU.x264.AC3.Rus.Eng.El
Дата кодирования : UTC 2012-03-09 14:38:13
Программа кодирования : mkvmerge v3.4.0 ('Rapunzel') сборка от May 15 2010 09:38:20
Библиотека кодирования : libebml v0.8.0 + libmatroska v0.9.0
Видео
Идентификатор : 1
Формат : AVC
Формат/Информация : Advanced Video Codec
Профиль формата : High@L4.1
Параметр CABAC формата : Да
Параметр ReFrames формата : 4 кадра
Идентификатор кодека : V_MPEG4/ISO/AVC
Продолжительность : 44 м.
Битрейт : 18,2 Мбит/сек
Ширина : 1920 пикселей
Высота : 1080 пикселей
Соотношение сторон : 16:9
Частота кадров : 23,976 кадра/сек
Цветовое пространство : YUV
Субдискретизация насыщенности : 4:2:0
Битовая глубина : 8 бит
Тип развёртки : Прогрессивная
Бит/(Пиксели*Кадры) : 0.366
Размер потока : 5,68 Гбайт (92%)
Заголовок : Coral reef by elephant aka itsamna, AnTo}{@
Библиотека кодирования : x264 core 116 r2074 2641b9e
Настройки программы : cabac=1 / ref=4 / deblock=1:-3:-3 / analyse=0x3:0x133 / me=umh / subme=9 / psy=1 / psy_rd=1.00:0.15 / mixed_ref=1 / me_range=16 / chroma_me=1 / trellis=2 / 8x8dct=1 / cqm=0 / deadzone=21,11 / fast_pskip=1 / chroma_qp_offset=-3 / threads=3 / sliced_threads=0 / nr=0 / decimate=1 / interlaced=0 / bluray_compat=0 / constrained_intra=0 / bframes=6 / b_pyramid=2 / b_adapt=2 / b_bias=0 / direct=3 / weightb=1 / open_gop=0 / weightp=2 / keyint=250 / keyint_min=23 / scenecut=40 / intra_refresh=0 / rc_lookahead=60 / rc=crf / mbtree=1 / crf=18.0 / qcomp=0.70 / qpmin=10 / qpmax=69 / qpstep=4 / vbv_maxrate=50000 / vbv_bufsize=50000 / crf_max=0.0 / nal_hrd=none / ip_ratio=1.40 / aq=1:0.70
Язык : German
Default : Да
Forced : Нет
Аудио #1
Идентификатор : 2
Формат : AC-3
Формат/Информация : Audio Coding 3
Расширение режима : CM (complete main)
Идентификатор кодека : A_AC3
Продолжительность : 44 м.
Вид битрейта : Постоянный
Битрейт : 640 Кбит/сек
Каналы : 6 каналов
Расположение каналов : Front: L C R, Side: L R, LFE
Частота : 48,0 КГц
Битовая глубина : 16 бит
Метод сжатия : С потерями
Размер потока : 204 Мбайт (3%)
Заголовок : VO
Язык : Russian
Default : Да
Forced : Нет
Аудио #2
Идентификатор : 3
Формат : AC-3
Формат/Информация : Audio Coding 3
Расширение режима : CM (complete main)
Идентификатор кодека : A_AC3
Продолжительность : 44 м.
Вид битрейта : Постоянный
Битрейт : 448 Кбит/сек
Каналы : 6 каналов
Расположение каналов : Front: L C R, Side: L R, LFE
Частота : 48,0 КГц
Битовая глубина : 16 бит
Метод сжатия : С потерями
Размер потока : 143 Мбайт (2%)
Язык : English
Default : Нет
Forced : Нет
Меню
00:00:00.000 : :01
00:09:36.326 : :02
00:19:50.940 : :03
00:27:55.340 : :04
00:36:52.460 : :05
00:44:30.126 : :06
[Торрент-статистика]
[Профиль]  [ЛС] 
Показать сообщения:    
Ответить на тему

Текущее время: Сегодня 00:35

Часовой пояс: GMT + 4



Вы не можете начинать темы
Вы не можете отвечать на сообщения
Вы не можете редактировать свои сообщения
Вы не можете удалять свои сообщения
Вы не можете голосовать в опросах
Вы не можете прикреплять файлы к сообщениям
Вы не можете скачивать файлы