С.Петербург, Петродворец, Валдай (Кив) [2012 г., Документальное, кино - путеводитель, авторское кино, HDTV 1080i] Горизонтальная анаморфная стереопара

Ответить на тему
 
Автор
Сообщение

alien.09 ®

Пол:

Стаж: 4 года 9 месяцев

Сообщений: 753

Репутация: 565 [+] [-]

Пост 14-Мар-2014 00:00

[Цитировать] 

--С.Петербург, Петродворец, Валдай--Год выпуска: 2012
Страна: Россия
Жанр: Документальное, кино - путеводитель, авторское кино
Продолжительность: 00:39:10
Перевод: Не требуется--Режиссер: Кив--Описание: Санкт-Петербург является северным городом с населением свыше 5 миллионов человек. Город расположен в северо-западной части России, в пределах Приневской низменности, на прилегающем к устью реки Невы побережье Невской губы Финского залива, основан 16 мая 1703 года императором Петром I. Высокоширотным положением города объясняется явление белых ночей. Петродворец - расположен на южном берегу Финского залива. Крупный туристический центр к западу от Санкт-Петербурга. Петродворец - всемирно известный своими фонтанами дворцово-парковый ансамбль. Замысел создания загородной царской резиденции, которая не уступала бы Версалю во Франции, возник у Петра I в 1714 году. Общая концепция планировки парков и дворцов Петергофа принадлежит императу. Фонтанов (173 фонтана, 4 каскада). Ежегодно до 3 млн. человек приезжают сюда, чтобы насладиться великолепием многочисленных фонтанов, уникальных парков и павильонов Петергофа. Показаны: Большой каскад,"Самсон","Чаши","Оранжерейный","Римские фонтаны" ,Фонтаны-шутихи,"Солнце","Сноп","Китовый","Адам" и "Ева", Морской канал и Аллея фонтанов. Валдайский Иверский Богородицкий Святоозерский монастырь (также Святоезерский) — православный мужской монастырь Русской Церкви, основанный патриархом Никоном. Находится на Сельвицком острове Валдайского озера в Валдайском районе Новгородской области, в 10 км от города Валдай.--Тип релиза: HDTV 1080i
Контейнер: MP4
Видео кодек: H264 (AVC)
Аудио кодек: AAC
Видео: MPEG-4 AVC, 17000 Кбит/с, 1920x1080, 25.000 кадр/с
Аудио: AAC, 2 ch, 235 Кбит/с

Скриншоты

Формат 3D

Anamorph SideBySide / Горизонтальная анаморфная стереопара Порядок ракурсов: левый ракурс первый Просмотр рекомендован на специализированнном оборудовании: 3D blu-ray плеер (ps3) + 3D телевизор + 3D очки или с комплектом NVIDIA® 3D Vision™, способным обеспечить работу с 3D на ПК.
Смотрим при помощи CyberLink PowerDVD 10 Ultra 3D или Arcsoft TotalMedia Theatre 5 или чем нибудь еще - на ваше усмотрение...
При использовании Arcsoft TotalMedia Theatre 3 установите плагин sim3D.

MI Report

Общее
Полное имя : G:\3D С.Петербург,Петергоф,Валдай-2012.mp4
Формат : MPEG-4
Профиль формата : Sony PSP
Идентификатор кодека : MSNV
Размер файла : 4,75 Гбайт
Продолжительность : 39 м.
Режим общего битрейта : Переменный
Общий поток : 17,3 Мбит/сек
Дата кодирования : UTC 2012-06-28 06:31:19
Дата пометки : UTC 2012-06-28 06:31:19
Видео
Идентификатор : 1
Формат : AVC
Формат/Информация : Advanced Video Codec
Профиль формата : High@L4.0
Параметр CABAC формата : Да
Параметр ReFrames формата : 2 кадра
Идентификатор кодека : avc1
Идентификатор кодека/Информация : Advanced Video Coding
Продолжительность : 39 м.
Вид битрейта : Переменный
Битрейт : 17,0 Мбит/сек
Максимальный битрейт : 17,5 Мбит/сек
Ширина : 1920 пикселей
Высота : 1080 пикселей
Соотношение сторон : 16:9
Режим частоты кадров : Постоянный
Частота кадров : 25,000 кадров/сек
Цветовое пространство : YUV
Субдискретизация насыщенности : 4:2:0
Битовая глубина : 8 бит
Тип развёртки : Чересстрочная
Порядок развёртки : Верхнее поле первое
Бит/(Пиксели*Кадры) : 0.329
Размер потока : 4,68 Гбайт (99%)
Язык : English
Дата кодирования : UTC 2012-06-28 06:31:19
Дата пометки : UTC 2012-06-28 06:31:19
Аудио
Идентификатор : 2
Формат : AAC
Формат/Информация : Advanced Audio Codec
Профиль формата : LC
Идентификатор кодека : 40
Продолжительность : 39 м.
Продолжительность оригинала : 39 м.
Вид битрейта : Постоянный
Битрейт : 235 Кбит/сек
Номинальный битрейт : 384 Кбит/сек
Каналы : 2 канала
Расположение каналов : Front: L R
Частота : 48,0 КГц
Метод сжатия : С потерями
Размер потока : 66,2 Мбайт (1%)
Размер потока оригинала : 66,2 Мбайт (1%)
Язык : English
Дата кодирования : UTC 2012-06-28 06:31:19
Дата пометки : UTC 2012-06-28 06:31:19
mdhd_Duration : 2362343

_________________
Правообладатели, убейтесь об эту надпись.


Последний раз редактировалось: alien.09 (2014-03-14 19:27), всего редактировалось 2 раз(а)
[Торрент-статистика]
[Профиль]  [ЛС] 

Волк

Пол:

Стаж: 6 лет 2 месяца

Сообщений: 692

Репутация: 297 [+] [-]

Откуда: Армения

Пост 14-Мар-2014 09:10 (спустя 9 часов)

[Цитировать] 

alien.09, Контейнер указан MKV а он MP4 как так?
[Торрент-статистика]
[Профиль]  [ЛС] 

alien.09 ®

Пол:

Стаж: 4 года 9 месяцев

Сообщений: 753

Репутация: 565 [+] [-]

Пост 14-Мар-2014 13:53 (спустя 4 часа)

[Цитировать] 

Волк,
прошу пардона. поправил и добавил MI Report.

_________________
Правообладатели, убейтесь об эту надпись.
[Торрент-статистика]
[Профиль]  [ЛС] 
Показать сообщения:    
Ответить на тему

Текущее время: Сегодня 07:30

Часовой пояс: GMT + 4



Вы не можете начинать темы
Вы не можете отвечать на сообщения
Вы не можете редактировать свои сообщения
Вы не можете удалять свои сообщения
Вы не можете голосовать в опросах
Вы не можете прикреплять файлы к сообщениям
Вы не можете скачивать файлы