Разрешите тебя поцеловать… на свадьбе (Мария Сергеенкова) [2013 г., комедия, DVDRip] [Лицензия]

Ответить на тему
 
Автор
Сообщение

TiZAr ®

Пол:

Стаж: 7 лет 4 месяца

Сообщений: 823

Репутация: 1160 [+] [-]

Откуда: Россия

Пост 05-Мар-2014 01:38

[Цитировать] 

Разрешите тебя поцеловать… на свадьбе- Год выпуска: 2013
Страна: Россия / Грин-фильм
Жанр: комедия
Продолжительность: 01:45:36
Режиссер: Мария Сергеенкова- -В ролях:
Игорь Лифанов, Мария Куликова, Борис Щербаков, Андрей Струговец, Серафима Низовская, Михаил Трясоруков, Сергей Лосев, Ольга Кирсанова и др.
Описание:
Прошел год после событий фильма «Разрешите тебя поцеловать…снова», в котором Власов с честью вышел из истории с «генеральской внучкой». Теперь он восстановлен в звании полковника. Генерал же готовится к «повышению» и благополучному выходу на пенсию. Только вот единственная часть портит ему все показатели и ставит под угрозу «заслуженный отдых». Есть только один человек, способный в кратчайшие сроки навести в подразделении порядок. Григория Власова и Наташу переводят в Санкт-Петербург!
Власов говорит о том, что теперь на новом месте службы и в новой квартире можно и про свадьбу подумать. «Разрешите пригласить тебя в ЗАГС», — заявляет он. Но сначала нужно навести в части порядок. Вверенное ему подразделение находится просто в плачевном состоянии. Проверка может нагрянуть буквально в любой момент, а без успешных оценок «плакала» и новая квартира, и жизнь в «северной столице» и пенсия у генерала. Словом, пройти проверку нужно только «на пять»! Наш герой вынужден разрываться между наведением порядка в полку и подготовкой к свадьбе, ведь на все это у него есть только неделя! Ситуация усложняется когда в полку появляется проверяющий, полковник Светлана Иваненко — бывшая жена Григория Власова. Тут уж Григорию точно никакого «спуску» не будет! Свадьба под угрозой срыва, между Наташей и Власовым летают «гром и молнии»… «Отменяй, Власов, свадьбу!» — заявляет Иваненко. Не тут-то было! Наш герой преодолеет все преграды, снова докажет свою любовь, с честью решит все проблемы и, наконец, сможет поцеловать свою невесту… на свадьбе!
Тип релиза: DVDRip
Контейнер: AVI
Видео кодек: XviD
Аудио кодек: MP3
Видео: 640x352 (1.82:1), 25 fps, XviD build 50 ~783 kbps avg, 0.14 bit/pixel
Аудио: 48 kHz, MPEG Layer 3, 2 ch, ~128.00 kbps avg

MI

Код:
General
Complete name                            : E:\downloads\Razreshite.tebya.pocelovat.snova.2012.O.DVDRip.700Mb.avi
Format                                   : AVI
Format/Info                              : Audio Video Interleave
File size                                : 696 MiB
Duration                                 : 1h 45mn
Overall bit rate                         : 922 Kbps
Writing application                      : VirtualDubModRus 1.5.10.2 (build 2542/release)
Writing library                          : VirtualDubMod build 2542/release
Video
ID                                       : 0
Format                                   : MPEG-4 Visual
Format profile                           : Advanced Simple@L5
Format settings, BVOP                    : 2
Format settings, QPel                    : No
Format settings, GMC                     : No warppoints
Format settings, Matrix                  : Custom
Codec ID                                 : XVID
Codec ID/Hint                            : XviD
Duration                                 : 1h 45mn
Bit rate                                 : 784 Kbps
Width                                    : 640 pixels
Height                                   : 352 pixels
Display aspect ratio                     : 16:9
Frame rate                               : 25.000 fps
Color space                              : YUV
Chroma subsampling                       : 4:2:0
Bit depth                                : 8 bits
Scan type                                : Progressive
Compression mode                         : Lossy
Bits/(Pixel*Frame)                       : 0.139
Stream size                              : 592 MiB (85%)
Writing library                          : XviD 1.2.1 (UTC 2008-12-04)
Audio
ID                                       : 1
Format                                   : MPEG Audio
Format version                           : Version 1
Format profile                           : Layer 3
Codec ID                                 : 55
Codec ID/Hint                            : MP3
Duration                                 : 1h 45mn
Bit rate mode                            : Constant
Bit rate                                 : 128 Kbps
Channel count                            : 2 channels
Sampling rate                            : 48.0 KHz
Compression mode                         : Lossy
Stream size                              : 96.7 MiB (14%)
Alignment                                : Aligned on interleaves
Interleave, duration                     : 40 ms (1.00 video frame)
Interleave, preload duration             : 504 ms
Writing library                          : LAME3.97
Encoding settings                        : -m s -V 4 -q 2 -lowpass 17 -b 128

Скриншоты



_________________
Не стоит обращать внимания на отсутствие сидов на моих раздачах. Все мои релизы мультитрекерные - нет сидов, включите DHT.
За релизами в HD качестве обращайтесь в личку, либо отписывайтесь в теме.
[Торрент-статистика]
[Профиль]  [ЛС] 
Показать сообщения:    
Ответить на тему

Текущее время: Сегодня 14:14

Часовой пояс: GMT + 4



Вы не можете начинать темы
Вы не можете отвечать на сообщения
Вы не можете редактировать свои сообщения
Вы не можете удалять свои сообщения
Вы не можете голосовать в опросах
Вы не можете прикреплять файлы к сообщениям
Вы не можете скачивать файлы