Курьер из «Рая» (Михаил Хлебородов) [2013 г., комедия, приключения, WEB-DLRip]

Ответить на тему
 
Автор
Сообщение

AleksSin ®

Пол:

Стаж: 7 лет 1 месяц

Сообщений: 23

Репутация: 26 [+] [-]

Откуда: Донбасс

Пост 01-Янв-2014 21:24

[Цитировать] 

Курьер из «Рая»
Год выпуска: 2013 г.
Страна: Россия
Жанр: комедия, приключения
Продолжительность: 01:32:26
Перевод: Не требуется
Cубтитры: нет
Режиссер: Михаил Хлебородов
В ролях: Евгений Ткачук, Елизавета Боярская, Гоша Куценко, Дмитрий Дюжев, Игорь Скляр, Дмитрий Нагиев, Артем Ткаченко, Екатерина Климова, Екатерина Федулова, Олег Тактаров
Описание: Егор Глазунов работает в криминальной полиции столицы и обладает удивительным даром — «врать с листа». Это умение очень выручает его в далёком маленьком городе, которых на карте России великое множество. Сюда Глазунов отправляется помочь другу детства Артёму — обычному курьеру с необычными принципами, у которого угнали доставшийся ему по странному стечению обстоятельств «Мерседес». Все следы ведут к местному авторитету, подобраться к которому невозможно. Последний шанс — прийти с «проверкой» из «следственного комитета». Сюжет гоголевского «Ревизора» превращается в историю новой России.


Сэмпл: http://multi-up.com/936315
Качество: WEB-DLRip
Формат видео: AVI
Видео кодек: XviD
Аудио кодек: MP3
Видео: 720x304 (2.37:1), 24.000 fps, XviD build 50 ~989 kbps avg, 0.19 bit/pixel
Аудио: 48 kHz, MPEG Layer 3, 2 ch, ~128.00 kbps avg

MediaInfo

Общее
Полное имя : K:\Курьер из «Рая» 2013. WEB-DLRip.avi
Формат : AVI
Формат/Информация : Audio Video Interleave
Размер файла : 744 Мбайт
Продолжительность : 1 ч. 32 м.
Общий поток : 1126 Кбит/сек
Программа кодирования : VirtualDubMod 1.5.10.3 | www.virtualdub-fr.org || (build 2550/release)
Библиотека кодирования : VirtualDubMod build 2550/release
Видео
Идентификатор : 0
Формат : MPEG-4 Visual
Профиль формата : Advanced Simple@L5
Параметр BVOP формата : 2
Параметр QPel формата : Нет
Параметр GMC формата : Без точки перехода
Параметр матрицы формата : Выборочная
Идентификатор кодека : XVID
Идентификатор кодека/Подсказка : XviD
Продолжительность : 1 ч. 32 м.
Битрейт : 989 Кбит/сек
Ширина : 720 пикс.
Высота : 304 пикс.
Соотношение сторон : 2,35:1
Частота кадров : 24,000 кадр/сек
Цветовое пространство : YUV
Подвыборка цветности : 4:2:0
Битовая глубина : 8 бит
Тип развёртки : Прогрессивная
Метод сжатия : С потерями
Бит/(Пиксели*Кадры) : 0.188
Размер потока : 654 Мбайт (88%)
Библиотека кодирования : XviD 1.2.1 (UTC 2008-12-04)
Аудио
Идентификатор : 1
Формат : MPEG Audio
Версия формата : Version 1
Профиль формата : Layer 3
Идентификатор кодека : 55
Идентификатор кодека/Подсказка : MP3
Продолжительность : 1 ч. 32 м.
Вид битрейта : Постоянный
Битрейт : 128 Кбит/сек
Каналы : 2 канала
Частота : 48,0 КГц
Метод сжатия : С потерями
Размер потока : 84,6 Мбайт (11%)
Выравнивание : Соединение по промежуткам
Продолжительность промежутка : 42 мс. (1,00 видеокадр)
Время предзагрузки промежутка : 504 ms
Библиотека кодирования : LAME3.99r
Настройки программы : -m s -V 4 -q 2 -lowpass 17 -b 128

Скриншоты




_________________
[Торрент-статистика]
[Профиль]  [ЛС] 
Показать сообщения:    
Ответить на тему

Текущее время: Сегодня 13:28

Часовой пояс: GMT + 4



Вы не можете начинать темы
Вы не можете отвечать на сообщения
Вы не можете редактировать свои сообщения
Вы не можете удалять свои сообщения
Вы не можете голосовать в опросах
Вы не можете прикреплять файлы к сообщениям
Вы не можете скачивать файлы