Географ глобус пропил (Александр Велединский) [2013 г., драма, HDRip] [Лицензия]

Ответить на тему
 
Автор
Сообщение

AleksSin ®

Пол:

Стаж: 7 лет 1 месяц

Сообщений: 23

Репутация: 26 [+] [-]

Откуда: Донбасс

Пост 26-Дек-2013 09:15

[Цитировать] 

Географ глобус пропил
Год выпуска: 2013 г.
Страна: Россия
Жанр: драма
Продолжительность: 02:04:51
Перевод: Не требуется
Cубтитры: нет
Режиссер: Александр Велединский
В ролях: Константин Хабенский, Елена Лядова, Александр Робак, Евгения Брик, Анна Уколова, Агриппина Стеклова, Евгения Крегжде, Максим Лагашкин, Анфиса Черных, Анастасия Золотько и др.
Описание: Молодой биолог Виктор Служкин от безденежья идет работать учителем географии в обычную пермскую школу. Он борется, а потом и дружит с учениками, конфликтует с завучем, ведет десятиклассников в поход — сплавляться по реке. Еще он пьет с друзьями вино, пытается ужиться с женой и водит в детский сад маленькую дочку. Он просто живет…
Дата мировой премьеры: 26 июля 2013
Дата российской премьеры: 7 ноября 2013, «Наше Кино»
Дата выхода DVD релиза: 16 января 2014, «CP Дистрибуция»
Дата выхода Blu-Ray релиза: 16 января 2014, «CP Дистрибуция»


Сэмпл: http://multi-up.com/935737
Качество: HDRip (Исх. BDRip 720p)
Формат видео: AVI
Видео кодек: XviD
Аудио кодек: MP3
Видео: 688x288 (2.39:1), 24.000 fps, XviD build 50 ~701 kbps avg, 0.15 bit/pixel
Аудио: 48 kHz, MPEG Layer 3, 2 ch, ~128.00 kbps avg

MediaInfo

Общее
Полное имя : S:\Фильмы\Географ глобус пропил. 2013. HDRip.avi
Формат : AVI
Формат/Информация : Audio Video Interleave
Размер файла : 748 Мбайт
Продолжительность : 2 ч. 4 м.
Общий поток : 838 Кбит/сек
Программа кодирования : VirtualDubMod 1.5.10.3 | www.virtualdub-fr.org || (build 2550/release)
Библиотека кодирования : VirtualDubMod build 2550/release
Видео
Идентификатор : 0
Формат : MPEG-4 Visual
Профиль формата : Advanced Simple@L5
Параметр BVOP формата : 2
Параметр QPel формата : Нет
Параметр GMC формата : Без точки перехода
Параметр матрицы формата : Выборочная
Идентификатор кодека : XVID
Идентификатор кодека/Подсказка : XviD
Продолжительность : 2 ч. 4 м.
Битрейт : 701 Кбит/сек
Ширина : 688 пикс.
Высота : 288 пикс.
Соотношение сторон : 2,40:1
Частота кадров : 24,000 кадр/сек
Цветовое пространство : YUV
Подвыборка цветности : 4:2:0
Битовая глубина : 8 бит
Тип развёртки : Прогрессивная
Метод сжатия : С потерями
Бит/(Пиксели*Кадры) : 0.147
Размер потока : 626 Мбайт (84%)
Библиотека кодирования : XviD 1.2.1 (UTC 2008-12-04)
Аудио
Идентификатор : 1
Формат : MPEG Audio
Версия формата : Version 1
Профиль формата : Layer 3
Идентификатор кодека : 55
Идентификатор кодека/Подсказка : MP3
Продолжительность : 2 ч. 4 м.
Вид битрейта : Постоянный
Битрейт : 128 Кбит/сек
Каналы : 2 канала
Частота : 48,0 КГц
Метод сжатия : С потерями
Размер потока : 114 Мбайт (15%)
Выравнивание : Соединение по промежуткам
Продолжительность промежутка : 42 мс. (1,00 видеокадр)
Время предзагрузки промежутка : 504 ms
Библиотека кодирования : LAME3.99r
Настройки программы : -m s -V 4 -q 2 -lowpass 17 -b 128

Скриншоты


_________________
[Торрент-статистика]
[Профиль]  [ЛС] 
Показать сообщения:    
Ответить на тему

Текущее время: Сегодня 16:26

Часовой пояс: GMT + 4



Вы не можете начинать темы
Вы не можете отвечать на сообщения
Вы не можете редактировать свои сообщения
Вы не можете удалять свои сообщения
Вы не можете голосовать в опросах
Вы не можете прикреплять файлы к сообщениям
Вы не можете скачивать файлы