Непобедимый дикарь / The Air Up There (Пол Майкл Глейсер) [1994 г., Комедия, DVDRip]

Ответить на тему
 
Автор
Сообщение

ilia ®

Пол:

Стаж: 6 лет 11 месяцев

Сообщений: 99

Репутация: 1 [+] [-]

Пост 03-Дек-2011 12:12

[Цитировать] 

Непобедимый дикарь / The Air Up There
Год выпуска: 1994
Страна: США
Жанр: Комедия
Продолжительность: 01:43:02
Перевод: Профессиональный (многоголосый, закадровый)
Режиссер: Пол Майкл Глейсер
В ролях: Кевин Бэйкон, Чарльз Гитонга Майна, Иоланда Васкез, Уинтстон Нтшона, Шон МакКанн, Дэннис Патрик, Ило Мутомбо, Найджел Мигель, Эрик Меньюк и др. Чтобы спасти свое пошатнувшееся положение, тренер баскетбольной команды, Джимми Долан, должен принимать отчаянные меры. И в то время, как другие наставники ищут новых игроков в Америке, он отправляется в самое сердце Африки, в настоящее дикое племя. Там живет Салех, который проявляет феноменальные способности к баскетболу. Но он оказывается сыном несговорчивого вождя. Тогда Джимми задумывает хитроумный план, чтобы привезти современного Тарзана в Америку.
Формат: AVI(XviD)
Качество: DVDrip
Видео кодек: MPEG-4
Аудио кодек: MP3
Видео: 512x272 ~730 kb/s
Аудио: MP3, 128 kb/s (2 ch)

MediaInfo

Общее
Полное имя : Nepobedimy.dikar.1994.DVDRip.avi
Формат : AVI
Формат/Информация : Audio Video Interleave
Размер файла : 635 Мбайт
Продолжительность : 1 ч. 43 м.
Общий поток : 861 Кбит/сек
Программа кодирования : VirtualDubMod 1.5.10.2 (build 2540/release)
Библиотека кодирования : VirtualDubMod build 2540/release
Видео
Идентификатор : 0
Формат : MPEG-4 Visual
Профиль формата : Advanced Simple@L5
Параметр BVOP формата : 2
Параметр QPel формата : Нет
Параметр GMC формата : Без точки перехода
Параметр матрицы формата : Default (H.263)
Идентификатор кодека : XVID
Идентификатор кодека/Подсказка : XviD
Продолжительность : 1 ч. 43 м.
Битрейт : 731 Кбит/сек
Ширина : 512 пикселей
Высота : 272 пикселя
Соотношение сторон : 1,882
Частота кадров : 25,000 кадров/сек
Цветовое пространство : YUV
Субдискретизация насыщенности : 4:2:0
Битовая глубина : 8 бит
Тип развёртки : Прогрессивная
Метод сжатия : С потерями
Бит/(Пиксели*Кадры) : 0.210
Размер потока : 539 Мбайт (85%)
Библиотека кодирования : XviD 0039 build=2005.09.16 (UTC 2005-09-16)
Аудио
Идентификатор : 1
Формат : MPEG Audio
Версия формата : Version 1
Профиль формата : Layer 3
Режим : Joint stereo
Расширение режима : MS Stereo
Идентификатор кодека : 55
Идентификатор кодека/Подсказка : MP3
Продолжительность : 1 ч. 37 м.
Вид битрейта : Постоянный
Битрейт : 128 Кбит/сек
Каналы : 2 канала
Частота : 48,0 КГц
Метод сжатия : С потерями
Задержка видео : 10 с.
Размер потока : 89,2 Мбайт (14%)
Выравнивание : Разделение по промежуткам
Продолжительность промежутка : 42 мс. (1,06 видеокадр)
Время предзагрузки промежутка : 504 мс.

Скриншоты



Последний раз редактировалось: ilia (2011-12-03 13:10), всего редактировалось 2 раз(а)
[Торрент-статистика]
[Профиль]  [ЛС] 

Ратибор

Стаж: 6 лет 11 месяцев

Сообщений: 201

Репутация: 10 [+] [-]

Пост 03-Дек-2011 12:37 (спустя 24 минуты)

[Цитировать] 

Это что за размер-то такой? На телефон что ли? ab

_________________

[Торрент-статистика]
[Профиль]  [ЛС] 

ilia ®

Пол:

Стаж: 6 лет 11 месяцев

Сообщений: 99

Репутация: 1 [+] [-]

Пост 03-Дек-2011 13:08 (спустя 30 минут)

[Цитировать] 

Это что за размер-то такой? На телефон что ли? ab
На очень большой телефон ae
Поставил расшифровку под спойлер bs
[Торрент-статистика]
[Профиль]  [ЛС] 
Показать сообщения:    
Ответить на тему

Текущее время: Сегодня 05:39

Часовой пояс: GMT + 4



Вы не можете начинать темы
Вы не можете отвечать на сообщения
Вы не можете редактировать свои сообщения
Вы не можете удалять свои сообщения
Вы не можете голосовать в опросах
Вы не можете прикреплять файлы к сообщениям
Вы не можете скачивать файлы