Ночь страха / Fright Night (Крэйг Гиллеспи / Craig Gillespie) [2011, США, ужасы, триллер, комедия, HDRip] Dub

Ответить на тему
 
Автор
Сообщение

Волк ®

Пол:

Стаж: 6 лет 6 месяцев

Сообщений: 690

Репутация: 297 [+] [-]

Откуда: Армения

Пост 04-Апр-2012 22:52

[Цитировать] 

Ночь страха / Fright Night- Страна: США
Жанр: ужасы, триллер, комедия
Год выпуска: 2011
Продолжительность: 01:45:57
Перевод: Профессиональный (дублированный)
Cубтитры: нет-Режиссер: Крэйг Гиллеспи / Craig Gillespie
Сценарий: Марти Ноксон / Marti Noxon, Том Холланд / Tom Holland
Продюсеры: Майкл Де Лука / Michael De Luca, Элисон Р. Розензвеиг / Alison R. Rozenzveig, Рэй Анджелик / Ray Angelico...
Оператор: Хавьер Агирресаробе / Javier Aguirresarobe
Композитор: Рамин Джавади / Ramin Javadi-В ролях: Колин Фаррелл, Антон Ельчин, Тони Коллетт, Дэвид Теннант, Имоджен Путс, Кристофер Минц-Плассе, Дэйв Франко, Рейд Юинг, Уилл Дентон, Сандра Вергара.-Описание: Выпускник школы Чарли Брюстер находится на пике своей ученической карьеры: он популярен среди сверстников и встречается с самой очаровательной девушкой во всей школе. Он становится настолько крут, что начинает избегать своего когда-то лучшего друга Эда. Неприятности для Чарли начинаются, когда по соседству прописывается Джерри.
На первый взгляд он кажется хорошим парнем, но все же что-то с ним не так, хотя никто этого не замечает, даже мать Чарли. После анализа странного поведения соседа Чарли приходит к ужасному, но, увы, единственному верному заключению: под лживой маской Джерри скрывается кровожадный вампир, который сделал его район своими охотничьими угодьями.
Не в силах убедить кого бы то ни было в своей правоте, Чарли обращается за помощью и советом к популярному иллюзионисту из Лас-Вегаса Питеру Винсенту, рассчитывая, что кудесник поможет ему избавиться от монстра.-Imdb
Kinopoisk
Sample-Качество видео: HDRip исходник BDRip 1080p
Формат видео: AVI
Видео: 624x352 (16:9), 23.976 fps, XviD MPEG-4 ~ 781 kbps avg, 0.14 bit/pixel
Аудио: 48 kHz, MPEG Layer 3, 2 ch, ~128.00 kbps avg

MI

Общее
Полное имя : Е:\Торрент\Noch.straha.2011.HDRip.avi
Формат : AVI
Формат/Информация : Audio Video Interleave
Размер файла : 696 Мбайт
Продолжительность : 1 ч. 45 м.
Общий поток : 919 Кбит/сек
Программа кодирования : VirtualDubMod 1.5.10.3 (build 2550/release)
Библиотека кодирования : VirtualDubMod build 2550/release
Видео
Идентификатор : 0
Формат : MPEG-4 Visual
Профиль формата : Advanced Simple@L5
Параметр BVOP формата : 1
Параметр QPel формата : Нет
Параметр GMC формата : Без точки перехода
Параметр матрицы формата : Default (H.263)
Режим смешивания : Сжатый битовый поток
Идентификатор кодека : XVID
Идентификатор кодека/Подсказка : XviD
Продолжительность : 1 ч. 45 м.
Битрейт : 781 Кбит/сек
Ширина : 624 пикселя
Высота : 352 пикселя
Соотношение сторон : 16:9
Частота кадров : 23,976 кадра/сек
Цветовое пространство : YUV
Субдискретизация насыщенности : 4:2:0
Битовая глубина : 8 бит
Тип развёртки : Прогрессивная
Метод сжатия : С потерями
Бит/(Пиксели*Кадры) : 0.148
Размер потока : 592 Мбайт (85%)
Библиотека кодирования : XviD 64
Аудио
Идентификатор : 1
Формат : MPEG Audio
Версия формата : Version 1
Профиль формата : Layer 3
Идентификатор кодека : 55
Идентификатор кодека/Подсказка : MP3
Продолжительность : 1 ч. 45 м.
Вид битрейта : Постоянный
Битрейт : 128 Кбит/сек
Каналы : 2 канала
Частота : 48,0 КГц
Метод сжатия : С потерями
Размер потока : 97,0 Мбайт (14%)
Выравнивание : Соединение по промежуткам
Продолжительность промежутка : 42 мс. (1,00 видеокадр)
Время предзагрузки промежутка : 504 мс.
Библиотека кодирования : LAME3.98r
Настройки программы : -m s -V 4 -q 2 -lowpass 17 -b 128

Скриншоты

[Торрент-статистика]
[Профиль]  [ЛС] 
Показать сообщения:    
Ответить на тему

Текущее время: Сегодня 04:15

Часовой пояс: GMT + 4



Вы не можете начинать темы
Вы не можете отвечать на сообщения
Вы не можете редактировать свои сообщения
Вы не можете удалять свои сообщения
Вы не можете голосовать в опросах
Вы не можете прикреплять файлы к сообщениям
Вы не можете скачивать файлы