Хранитель времени / Hugo (Мартин Скорсезе / Martin Scorsese) [2011, США, драма, детектив, приключения, семейный HDRip] Dub |Лицензия|

Ответить на тему
 
Автор
Сообщение

Волк ®

Пол:

Стаж: 6 лет 5 месяцев

Сообщений: 690

Репутация: 297 [+] [-]

Откуда: Армения

Пост 02-Апр-2012 12:12

[Цитировать] 

Хранитель времени / Hugo Страна: США
Жанр: драма, детектив, приключения, семейный
Год выпуска: 2011
Продолжительность: 02:06:21
Перевод: Профессиональный (дублированный) |Лицензия|
Cубтитры: нет-Режиссер: Мартин Скорсезе / Martin Scorsese-В ролях: Хлоя Морец, Эмили Мортимер, Джуд Лоу, Хелен МакКрори, Кристофер Ли, Саша Барон Коэн, Бен Кингсли, Рэй Уинстоун, Ричард Гриффитс, Аса Баттерфилд-Описание: Действие разворачивается во Франции начала 30-х. Главный герой, мальчик-сирота Хьюго, проживающий в стенах парижского вокзала со своим дядей-алкоголиком, случайно находит таинственный механизм, созданный знаменитым фильммейкером Жоржем Мелье. Эта находка запускает цепную реакцию удивительных событий, которые в конечном итоге помогут Хьюго разгадать тайну его покойного отца.- --Качество видео: HDRip |Рип BDRip 720p|
Формат видео: AVI
Видео: 624x352 (1.77:1), 23.976 fps, XviD build 50 ~731 kbps avg, 0.14 bit/pixel
Аудио: 48 kHz, MPEG Layer 3, 2 ch, ~128.00 kbps avg
Скачать: Сэмпл-

MediaInfo

General
Complete name : Hranitel_vremeni_HDRip_dub_[youtracker.net]_by_Scarabey.avi
Format : AVI
Format/Info : Audio Video Interleave
File size : 785 MiB
Duration : 2h 6mn
Overall bit rate : 869 Kbps
Writing application : VirtualDubMod 1.5.10.2 (build 2540/release)
Writing library : VirtualDubMod build 2540/release
Video
ID : 0
Format : MPEG-4 Visual
Format profile : Advanced Simple@L5
Format settings, BVOP : 1
Format settings, QPel : No
Format settings, GMC : No warppoints
Format settings, Matrix : Custom
Codec ID : XVID
Codec ID/Hint : XviD
Duration : 2h 6mn
Bit rate : 732 Kbps
Width : 624 pixels
Height : 352 pixels
Display aspect ratio : 16:9
Frame rate : 23.976 fps
Color space : YUV
Chroma subsampling : 4:2:0
Bit depth : 8 bits
Scan type : Progressive
Compression mode : Lossy
Bits/(Pixel*Frame) : 0.139
Stream size : 661 MiB (84%)
Writing library : XviD 1.2.1 (UTC 2008-12-04)
Audio
ID : 1
Format : MPEG Audio
Format version : Version 1
Format profile : Layer 3
Codec ID : 55
Codec ID/Hint : MP3
Duration : 2h 6mn
Bit rate mode : Constant
Bit rate : 128 Kbps
Channel(s) : 2 channels
Sampling rate : 48.0 KHz
Compression mode : Lossy
Stream size : 116 MiB (15%)
Alignment : Aligned on interleaves
Interleave, duration : 42 ms (1.00 video frame)
Interleave, preload duration : 504 ms
Writing library : LAME3.97
Encoding settings : -m s -V 4 -q 2 -lowpass 17 -b 128

Скриншот c названием фильма

Скриншоты

[Торрент-статистика]
[Профиль]  [ЛС] 
Показать сообщения:    
Ответить на тему

Текущее время: Сегодня 06:54

Часовой пояс: GMT + 4



Вы не можете начинать темы
Вы не можете отвечать на сообщения
Вы не можете редактировать свои сообщения
Вы не можете удалять свои сообщения
Вы не можете голосовать в опросах
Вы не можете прикреплять файлы к сообщениям
Вы не можете скачивать файлы