Схватка / The Grey (Джо Карнахан / Joe Carnahan) [2012, США, боевик, триллер, драма, BDRip] Dub

Ответить на тему
 
Автор
Сообщение

Волк ®

Пол:

Стаж: 6 лет 11 месяцев

Сообщений: 695

Репутация: 300 [+] [-]

Откуда: Армения

Пост 08-Мар-2012 16:09

[Цитировать] 

Схватка / The Grey -Страна: США
Жанр: боевик, триллер, драма
Год выпуска: 2012
Продолжительность: 01:57:06
Перевод: Профессиональный (дублированный) |Лицензия|
Cубтитры: нет-Режиссер: Джо Карнахан / Joe Carnahan-В ролях: Лиам Нисон, Дермот Малруни, Фрэнк Грилло, Джеймс Бэдж, Дэйл Джо Андерсон, Нонсо Анози, Даллас Робертс, Лариса Стадничук, Бен Брэй, Джеймс Битонти-Описание: На Аляске потерпел крушение самолет, и оставшиеся в живых пассажиры оказались в плену безлюдной снежной пустыни, где только стая волков скрашивает пейзаж. Люди хотят выжить любой ценой, и теперь им предстоит смертельная схватка…- -Качество видео: BDRip |Рип с Blu-ray disc 1080p|
Формат видео: AVI
Видео: 640x272 (2.35:1), 23.976 fps, XviD build 50 ~753 kbps avg, 0.18 bit/pixel
Аудио: 48 kHz, MPEG Layer 3, 2 ch, ~128.00 kbps avg |Дубляж|
Скачать: Сэмпл-

MediaInfo

General
Complete name : Shvatka_2012_HDRip_[youtracker.net]_by_Scarabey.avi
Format : AVI
Format/Info : Audio Video Interleave
File size : 746 MiB
Duration : 1h 57mn
Overall bit rate : 891 Kbps
Writing application : VirtualDubMod 1.5.10.2 (build 2540/release)
Writing library : VirtualDubMod build 2540/release
Video
ID : 0
Format : MPEG-4 Visual
Format profile : Advanced Simple@L5
Format settings, BVOP : 1
Format settings, QPel : No
Format settings, GMC : No warppoints
Format settings, Matrix : Custom
Codec ID : XVID
Codec ID/Hint : XviD
Duration : 1h 57mn
Bit rate : 753 Kbps
Width : 640 pixels
Height : 272 pixels
Display aspect ratio : 2.35:1
Frame rate : 23.976 fps
Color space : YUV
Chroma subsampling : 4:2:0
Bit depth : 8 bits
Scan type : Progressive
Compression mode : Lossy
Bits/(Pixel*Frame) : 0.181
Stream size : 631 MiB (85%)
Writing library : XviD 1.2.1 (UTC 2008-12-04)
Audio
ID : 1
Format : MPEG Audio
Format version : Version 1
Format profile : Layer 3
Codec ID : 55
Codec ID/Hint : MP3
Duration : 1h 57mn
Bit rate mode : Constant
Bit rate : 128 Kbps
Channel(s) : 2 channels
Sampling rate : 48.0 KHz
Compression mode : Lossy
Stream size : 107 MiB (14%)
Alignment : Aligned on interleaves
Interleave, duration : 42 ms (1.00 video frame)
Interleave, preload duration : 504 ms
Writing library : LAME3.97
Encoding settings : -m s -V 4 -q 2 -lowpass 17 -b 128

Скриншот c названием фильма

Скриншоты

[Торрент-статистика]
[Профиль]  [ЛС] 

Nemo

Пол:

Стаж: 5 лет 3 месяца

Сообщений: 3

Репутация: 0 [+] [-]

Откуда: Город на горе

Пост 01-Май-2014 19:29 (спустя 2 года 1 месяц)

[Цитировать] 

хм.... почему в нашем кино?
[Торрент-статистика]
[Профиль]  [ЛС] 

Пост 02-Май-2014 09:12 (спустя 13 часов)

Топик был перенесен из форума Наше видео компактного размера (~ 700 мб, +/-) в форум Зарубежное видео компактного размера (~ 700 мб, +/-)
Волк
 
Показать сообщения:    
Ответить на тему

Текущее время: Сегодня 07:34

Часовой пояс: GMT + 4



Вы не можете начинать темы
Вы не можете отвечать на сообщения
Вы не можете редактировать свои сообщения
Вы не можете удалять свои сообщения
Вы не можете голосовать в опросах
Вы не можете прикреплять файлы к сообщениям
Вы не можете скачивать файлы