Воспроизведение / Playback (Майкл Никлз) [2012, Ужасы, триллер, HQRip]

Ответить на тему
 
Автор
Сообщение

diim ®

Пол:

Стаж: 3 года 3 месяца

Сообщений: 1035

Репутация: 112 [+] [-]

Пост 16-Фев-2012 03:34

[Цитировать] 

Воспроизведение / PlaybackГод выпуска: 2012
Страна: США
Слоган: «Picture. Evil.»
Жанр: Ужасы, триллер
Продолжительность: 01:38:33
Перевод: Любительский (одноголосый закадровый)-Режиссёр: Майкл Никлз
В ролях: Алессандра Торесон, Тоби Хемингуэй, Кристиан Слэйтер, Джонни Пакар, Эмбир Чайлдерс, Джонатан Кельтц, Дэрил Митчел, Марк Меткалф, Абрахам Цислински-Описание: Герои фильма, школьники из старшего класса, вызывают к жизни демона, который нападает на своих жертв через видеозапись, во время просмотра…--Качество: HQRip
Формат: AVI
Видео кодек: XviD
Аудио кодек: MP3
Видео: 640x352, 23.975 fps, 861 kbps avg
Аудио #1: 48 kHz, 2 ch, 128 kbps avg [Любительский (одноголосый закадровый)]
Субтитры: Нет-

MediaInfo

General
Complete name : Vosproizvidenie.2012.avi
Format : AVI
Format/Info : Audio Video Interleave
File size : 704 MiB
Duration : 1h 38mn
Overall bit rate : 999 Kbps
Writing application : VirtualDubMod 1.5.10.3
Writing library : VirtualDubMod build 2550/release
Video
ID : 0
Format : MPEG-4 Visual
Format profile : Advanced Simple@L5
Format settings, BVOP : 1
Format settings, QPel : No
Format settings, GMC : No warppoints
Format settings, Matrix : Default (MPEG)
Codec ID : DX50
Codec ID/Hint : DivX 5
Duration : 1h 38mn
Bit rate : 862 Kbps
Width : 640 pixels
Height : 352 pixels
Display aspect ratio : 16:9
Frame rate : 23.976 fps
Color space : YUV
Chroma subsampling : 4:2:0
Bit depth : 8 bits
Scan type : Progressive
Compression mode : Lossy
Bits/(Pixel*Frame) : 0.160
Stream size : 607 MiB (86%)
Writing library : XviD 1.2.1 (UTC 2008-12-04)
Audio
ID : 1
Format : MPEG Audio
Format version : Version 1
Format profile : Layer 3
Codec ID : 55
Codec ID/Hint : MP3
Duration : 1h 38mn
Bit rate mode : Constant
Bit rate : 128 Kbps
Channel(s) : 2 channels
Sampling rate : 48.0 KHz
Compression mode : Lossy
Stream size : 90.2 MiB (13%)
Alignment : Aligned on interleaves
Interleave, duration : 42 ms (1.00 video frame)
Interleave, preload duration : 504 ms
Writing library : LAME3.99
Encoding settings : -m s -V 4 -q 2 -lowpass 17 -b 128

Скриншоты

[Торрент-статистика]
[Профиль]  [ЛС] 
Показать сообщения:    
Ответить на тему

Текущее время: Сегодня 04:19

Часовой пояс: GMT + 4



Вы не можете начинать темы
Вы не можете отвечать на сообщения
Вы не можете редактировать свои сообщения
Вы не можете удалять свои сообщения
Вы не можете голосовать в опросах
Вы не можете прикреплять файлы к сообщениям
Вы не можете скачивать файлы