Люди на солнце / Mennesker i solen (Пер-Олаф Соренсен) [2011, Комедия, HQRip]

Ответить на тему
 
Автор
Сообщение

diim ®

Пол:

Стаж: 3 года 8 месяцев

Сообщений: 1033

Репутация: 112 [+] [-]

Пост 05-Фев-2012 13:57

[Цитировать] 

Люди на солнце / Mennesker i solenГод выпуска: 2011
Страна: Норвегия
Жанр: Комедия
Продолжительность: 01:17:58
Перевод: Любительский (одноголосый закадровый)-Режиссёр: Пер-Олаф Соренсен
В ролях: Гита Нёрбю, Эни Даль Торп, Джон Огарден, Хьерсти Холмен, Ингар Хэльге Гимле-Описание: Две Норвежские пары встречаются на отдыхе в Швеции. Там они узнают, что это не только первый день отдыха, но и первый день конца света, как предсказано в библии. Две пары не воспринимают это в серьёз и когда начинает идти дождь из крови, то у них первое желание, это сохранить обед на столе. Фильм отсылает к Ларсу Фон Триеру и его Меланхолии.--Качество: HQRip
Формат: AVI
Видео кодек: XviD
Аудио кодек: MP3
Видео: 640x272 , 24 fps, 1119 kbps
Аудио #1: 48 kHz, 2 ch, 128 kbps [Любительский (одноголосый закадровый)]
Субтитры: Нет-

MediaInfo

General
Complete name : Mennesker i solen.2011.avi
Format : AVI
Format/Info : Audio Video Interleave
File size : 701 MiB
Duration : 1h 17mn
Overall bit rate : 1 257 Kbps
Writing application : VirtualDubMod 1.5.10.2 (build 2540/release)
Writing library : VirtualDubMod build 2540/release
Video
ID : 0
Format : MPEG-4 Visual
Format profile : Advanced Simple@L5
Format settings, BVOP : 2
Format settings, QPel : No
Format settings, GMC : No warppoints
Format settings, Matrix : Default (H.263)
Codec ID : XVID
Codec ID/Hint : XviD
Duration : 1h 17mn
Bit rate : 1 119 Kbps
Width : 640 pixels
Height : 272 pixels
Display aspect ratio : 2.35:1
Frame rate : 24.000 fps
Color space : YUV
Chroma subsampling : 4:2:0
Bit depth : 8 bits
Scan type : Progressive
Compression mode : Lossy
Bits/(Pixel*Frame) : 0.268
Stream size : 624 MiB (89%)
Writing library : XviD 1.2.1 (UTC 2008-12-04)
Audio
ID : 1
Format : MPEG Audio
Format version : Version 1
Format profile : Layer 3
Mode : Joint stereo
Mode extension : MS Stereo
Codec ID : 55
Codec ID/Hint : MP3
Duration : 1h 17mn
Bit rate mode : Constant
Bit rate : 128 Kbps
Channel(s) : 2 channels
Sampling rate : 48.0 KHz
Compression mode : Lossy
Stream size : 71.4 MiB (10%)
Alignment : Aligned on interleaves
Interleave, duration : 42 ms (1.00 video frame)
Interleave, preload duration : 504 ms

Скриншоты

[Торрент-статистика]
[Профиль]  [ЛС] 

Chet

Пол:

Стаж: 6 лет 11 месяцев

Сообщений: 1809

Репутация: 365 [+] [-]

Откуда: UA

Пост 05-Фев-2012 16:07 (спустя 2 часа 9 минут)

[Цитировать] 

я и "Меланхолию" чё-та не смотрел; здесь тоже все поумирали?
[Торрент-статистика]
[Профиль]  [ЛС] 
Показать сообщения:    
Ответить на тему

Текущее время: Сегодня 19:37

Часовой пояс: GMT + 4



Вы не можете начинать темы
Вы не можете отвечать на сообщения
Вы не можете редактировать свои сообщения
Вы не можете удалять свои сообщения
Вы не можете голосовать в опросах
Вы не можете прикреплять файлы к сообщениям
Вы не можете скачивать файлы