Война стрел / Стрела. Абсолютное оружие / Choejongbyungki Hwal / War of the Arrows (Ким Хан Мин / Kim Han Min) [2011, Южная Корея, Исторический, экшн, BDRip] DVO GREEN TEA

Ответить на тему
 
Автор
Сообщение

DarthNihilus ®

Пол:

Стаж: 8 лет 11 месяцев

Сообщений: 993

Репутация: 166 [+] [-]

Откуда: Антарктида

Пост 13-Дек-2012 16:21

[Цитировать] 

Война стрел / Стрела. Абсолютное оружие
Choejongbyungki Hwal / War of the Arrows
Страна: Южная Корея
Жанр: Исторический, экшн
Год выпуска: 2011
Продолжительность: 2:02:13
Перевод: Любительский (двухголосый закадровый) Алекс Викке, pandora2177
Cубтитры: нет
Режиссер: Ким Хан Мин / Kim Han Min
В ролях: Пак Хэ Иль, Рю Сынг Рён, Мун Чхе Вон, Ким Му Ёль и др.
Описание: 1636 г. Второе нашествие манчжуров в Корею. Захватчики вторгаются в мирную деревню во время проходящей там свадьбы, учиняют жестокую резню и захватывают пленных.
Искусный лучник, меткий стрелок Нам И рискует жизнью, спасая свою сестру из рабства.
Сцена лесной погони, продолжающаяся всю последнюю треть фильма, явно навеяна "Апокалипсисом" Мэла Гибсона.
Доп. информация: Перевод: Betrayal
Релиз: релиз-группа "GREEN TEA"
Качество видео: BDRip (War of the Arrows 2011 BluRay 1080p AVC DTS-HD MA5.1-CHDbits)
Формат видео: AVI
Видео: XviD, 720x304, 2,35:1, 23,976 кадра/сек, 2093 Кбит/сек
Аудио: ac3, 48,0 КГц, 448 Кбит/сек, 6 каналов

MediaInfo

Полное имя : G:\Voina.Strel.2011.RUS.BDRip.XviD.AC3.-HQ-ViDEO.&.GREEN TEA.avi
Формат : AVI
Формат/Информация : Audio Video Interleave
Профиль формата : OpenDML
Размер файла : 2,18 Гбайт
Продолжительность : 2 ч. 2 м.
Общий поток : 2553 Кбит/сек
Программа кодирования : VirtualDubMod 1.5.10.2 (build 2540/release)
Библиотека кодирования : VirtualDubMod build 2540/release
Видео
Идентификатор : 0
Формат : MPEG-4 Visual
Профиль формата : Advanced Simple@L5
Параметр BVOP формата : 1
Параметр QPel формата : Нет
Параметр GMC формата : Без точки перехода
Параметр матрицы формата : Выборочная
Режим смешивания : Сжатый битовый поток
Идентификатор кодека : XVID
Идентификатор кодека/Подсказка : XviD
Продолжительность : 2 ч. 2 м.
Битрейт : 2093 Кбит/сек
Ширина : 720 пикс.
Высота : 304 пикс.
Соотношение сторон : 2,35:1
Частота кадров : 23,976 кадр/сек
Цветовое пространство : YUV
Подвыборка цветности : 4:2:0
Битовая глубина : 8 бит
Тип развёртки : Прогрессивная
Метод сжатия : С потерями
Бит/(Пиксели*Кадры) : 0.399
Размер потока : 1,79 Гбайт (82%)
Библиотека кодирования : XviD 64
Аудио
Идентификатор : 1
Формат : AC-3
Формат/Информация : Audio Coding 3
Расширение режима : CM (complete main)
Идентификатор кодека : 2000
Продолжительность : 2 ч. 2 м.
Вид битрейта : Постоянный
Битрейт : 448 Кбит/сек
Каналы : 6 каналов
Расположение каналов : Front: L C R, Side: L R, LFE
Частота : 48,0 КГц
Битовая глубина : 16 бит
Метод сжатия : С потерями
Размер потока : 392 Мбайт (18%)
Выравнивание : Разделение по промежуткам
Продолжительность промежутка : 42 мс. (1,00 видеокадр)
Время предзагрузки промежутка : 500 ms

Скриншот c названием фильма

Скриншоты


_________________
[Нет сидов - включите DHT]


Последний раз редактировалось: DarthNihilus (2013-06-27 22:04), всего редактировалось 2 раз(а)
[Торрент-статистика]
[Профиль]  [ЛС] 

DarthNihilus ®

Пол:

Стаж: 8 лет 11 месяцев

Сообщений: 993

Репутация: 166 [+] [-]

Откуда: Антарктида

Пост 13-Дек-2012 16:25 (спустя 4 минуты)

[Цитировать] 

У озвучивающего мужика очень хороший голос, (ну телка как всегда писклявая), так что просмотр будет приятным.

_________________
[Нет сидов - включите DHT]
[Торрент-статистика]
[Профиль]  [ЛС] 
Показать сообщения:    
Ответить на тему

Текущее время: Сегодня 14:55

Часовой пояс: GMT + 4



Вы не можете начинать темы
Вы не можете отвечать на сообщения
Вы не можете редактировать свои сообщения
Вы не можете удалять свои сообщения
Вы не можете голосовать в опросах
Вы не можете прикреплять файлы к сообщениям
Вы не можете скачивать файлы