Челюсти / JAWS (Стивен Спилберг /Steven Spielberg) [1975 г.] (Ужасы) [DVD9] AVO (Гаврилов, Живов) + original eng

Ответить на тему
 
Автор
Сообщение

anton966 ®

Пол:

Стаж: 8 лет 11 месяцев

Сообщений: 24

Репутация: 0 [+] [-]

Пост 20-Дек-2011 12:52

[Цитировать] 

Челюсти / JawsГод выпуска: 1975
Дата выхода DVD: 7 ноября 2005 г. UNIVERSAL PICTURES
Производство: США
Жанр: Ужасы
Продолжительность: 02:03:55
Перевод: Авторский (одноголосый, закадровый) Андрей Гаврилов, Юрий Живов
Оригинальная дорожка: Английская
Субтитры: отсутствуют
Режиссер: Стивен Спилберг / Steven Spielberg
В ролях: Рой Шайдер / Roy Scheider, Ричард Дрейфусс / Richard Dreyfuss, Роберт Шоу / Robert Shaw, Лоррэйн Гэри / Lorraine Gary, Мюррей Хэмилтон / Murray Hamilton, Тед Гроссмэн / Ted Grossman, Сьюзан Бэклайни / Susan Backlinie, Карл Готтлиб / Carl Gottlieb, Джонатан Филли / Jonathan Filley, Джеффри Крэймер / Jeffrey Kramer
Описание: Когда на экраны вышла экранизация бестселлера Питера Бенчли в постановке режиссера Стивена Спилберга, мир в одночасье изменился навсегда. Миллионы людей испугались по-настоящему, снова пошли на картину и посоветовали сходить всем своим знакомым. "Челюсти" стали первым фильмом, собравшим в прокате Америки магическую сумму в сто миллионов долларов.
Фильм великого Спилберга прошел проверку временем и выстоял, похоронив тысячи киноподделок на эту же тему. До сих пор при звуках, теперь уже ставшей классической, музыки Джона Уильямса у многих людей волосы встают дыбом, и всплывают из подсознания жуткие картины, созданные невероятно талантливым режиссером. Теперь пришло время и Вам отправиться в роковое путешествие на бескрайние просторы океана, где вместе с тремя героями этого фильма Вас ждет встреча с огромной и безжалостной белой смертью.

Доп. информация: DVD собран на основе скачанного с тру исходника. Исправлена "кривая" навигация по сценам. С меню ничего не делал, кроме блокировки не нужных кнопок. Дорожка с переводом Гаврилова с "чистого голоса". За голос спасибо dunhill200!
Примечание: R1, Бонусы, допы.

Источник/Качество: DVD9
Формат: DVD Video
Видео кодек: MPEG2
Аудио кодек: AC3
Видео: NTSC 16:9 (720x480) VBR Auto Pan&Scan
Аудио#1: Russian (Гаврилов) Dolby Digital AC3 48000Hz 6ch 448Kbps
Аудио#2: Russian (Живов) Dolby Digital AC3 48000Hz 6ch 448Kbps
Аудио#3: English Dolby Digital AC3 48000Hz 6ch 448Kbps

Награды

Премии и награды:
1976 - ОСКАР
Победитель в категориях:
1 - Лучший звук
John R. Carter
Robert L. Hoyt
Roger Heman, Jr.
2 - Лучший монтаж
Верна Филдс /Verna Fields/
3 - Лучшая музыка
Джон Уильямс /John Williams/
Номинирован в категориях:
1 - Лучший фильм
Стивен Спилберг /Steven Spielberg/

Media Info

Общее
Полное имя : H:\Кино3\Jaws.(Gavrilox, Zhivov).DVD9\VIDEO_TS\VTS_01_1.VOB
Формат : MPEG-PS
Размер файла : 1024 Мбайт
Продолжительность : 20 м.
Общий поток : 6826 Кбит/сек
Видео
Идентификатор : 224 (0xE0)
Формат : MPEG Video
Версия формата : Version 2
Профиль формата : Main@Main
Параметр BVOP формата : Да
Параметр матрицы формата : Выборочная
Продолжительность : 20 м.
Вид битрейта : Переменный
Битрейт : 5346 Кбит/сек
Максимальный битрейт : 9800 Кбит/сек
Ширина : 720 пикселей
Высота : 480 пикселей
Соотношение сторон : 16:9
Частота кадров : 29,970 кадров/сек
Стандарт вещания : NTSC
Цветовое пространство : YUV
Субдискретизация насыщенности : 4:2:0
Битовая глубина : 8 бит
Метод сжатия : С потерями
Бит/(Пиксели*Кадры) : 0.516
Размер потока : 802 Мбайт (78%)
Аудио #1
Идентификатор : 189 (0xBD)-128 (0x80)
Формат : AC-3
Формат/Информация : Audio Coding 3
Расширение режима : CM (complete main)
Режим смешивания : DVD-Video
Продолжительность : 20 м.
Вид битрейта : Постоянный
Битрейт : 448 Кбит/сек
Каналы : 6 каналов
Расположение каналов : Front: L C R, Side: L R, LFE
Частота : 48,0 КГц
Битовая глубина : 16 бит
Метод сжатия : С потерями
Размер потока : 67,2 Мбайт (7%)
Аудио #2
Идентификатор : 189 (0xBD)-129 (0x81)
Формат : AC-3
Формат/Информация : Audio Coding 3
Расширение режима : CM (complete main)
Режим смешивания : DVD-Video
Продолжительность : 20 м.
Вид битрейта : Постоянный
Битрейт : 448 Кбит/сек
Каналы : 6 каналов
Расположение каналов : Front: L C R, Side: L R, LFE
Частота : 48,0 КГц
Битовая глубина : 16 бит
Метод сжатия : С потерями
Размер потока : 67,2 Мбайт (7%)
Аудио #3
Идентификатор : 189 (0xBD)-130 (0x82)
Формат : AC-3
Формат/Информация : Audio Coding 3
Расширение режима : CM (complete main)
Режим смешивания : DVD-Video
Продолжительность : 20 м.
Вид битрейта : Постоянный
Битрейт : 448 Кбит/сек
Каналы : 6 каналов
Расположение каналов : Front: L C R, Side: L R, LFE
Частота : 48,0 КГц
Битовая глубина : 16 бит
Метод сжатия : С потерями
Размер потока : 67,2 Мбайт (7%)

Скриншоты

Меню

Анаморф





В размер






Последний раз редактировалось: anton966 (2011-12-20 14:46), всего редактировалось 1 раз
[Торрент-статистика]
[Профиль]  [ЛС] 

Ратибор

Стаж: 9 лет

Сообщений: 192

Репутация: 10 [+] [-]

Пост 20-Дек-2011 13:14 (спустя 21 минута)

[Цитировать] 

У вас "В размер" скриншоты не соответствуют заданным характеристикам видео потока.
А вот "анаморф" соответствует ab

_________________

[Торрент-статистика]
[Профиль]  [ЛС] 

anton966 ®

Пол:

Стаж: 8 лет 11 месяцев

Сообщений: 24

Репутация: 0 [+] [-]

Пост 20-Дек-2011 13:16 (спустя 2 минуты)

[Цитировать] 

Ратибор, У меня все соответствует.
[Торрент-статистика]
[Профиль]  [ЛС] 

diim

Пол:

Стаж: 5 лет 10 месяцев

Сообщений: 1038

Репутация: 112 [+] [-]

Пост 20-Дек-2011 13:30 (спустя 14 минут)

[Цитировать] 

anton966,
Размер указыный в релизе 720x480, а сами скриншоты 853 x 480 пикселей, исправьте на заявленые.
Красный цвет только для модераторов, поправьте.
[Торрент-статистика]
[Профиль]  [ЛС] 

anton966 ®

Пол:

Стаж: 8 лет 11 месяцев

Сообщений: 24

Репутация: 0 [+] [-]

Пост 20-Дек-2011 13:44 (спустя 13 минут)

[Цитировать] 

diim, Мда... В системы NTSC 720x480 идет анаморфное изображение, которое при просмотре, благодаря флажкам разворачивается по горизонтали до 853рх это и есть истинный размер при просмотре. Как не сложно заметить два вида скринов: анаморф и в размер. Что Вы хотите что бы я исправил? А цвет не красный, а коричневый (brown).
[Торрент-статистика]
[Профиль]  [ЛС] 

Ратибор

Стаж: 9 лет

Сообщений: 192

Репутация: 10 [+] [-]

Пост 20-Дек-2011 13:48 (спустя 4 минуты)

[Цитировать] 

Вы просто сделайте скрины того размера, который заявлен.

_________________

[Торрент-статистика]
[Профиль]  [ЛС] 

anton966 ®

Пол:

Стаж: 8 лет 11 месяцев

Сообщений: 24

Репутация: 0 [+] [-]

Пост 20-Дек-2011 13:49 (спустя 57 секунд)

[Цитировать] 

Ратибор, Анаморфные скрины они и есть.
[Торрент-статистика]
[Профиль]  [ЛС] 

diim

Пол:

Стаж: 5 лет 10 месяцев

Сообщений: 1038

Репутация: 112 [+] [-]

Пост 20-Дек-2011 23:16 (спустя 9 часов)

[Цитировать] 

anton966,
Спасибо дошло ...
[Торрент-статистика]
[Профиль]  [ЛС] 
Показать сообщения:    
Ответить на тему

Текущее время: Сегодня 08:44

Часовой пояс: GMT + 4



Вы не можете начинать темы
Вы не можете отвечать на сообщения
Вы не можете редактировать свои сообщения
Вы не можете удалять свои сообщения
Вы не можете голосовать в опросах
Вы не можете прикреплять файлы к сообщениям
Вы не можете скачивать файлы