Хороший, Плохой, Злой / The Good, The Bad and The Ugly/ Il buono, il brutto, il cattivo (Серджио Леоне /Sergio Leone) [1966 г., Вестерн, Приключения, BDRip]

Ответить на тему
 
Автор
Сообщение

3232fox ®

Пол:

Стаж: 7 лет 8 месяцев

Сообщений: 586

Репутация: 426 [+] [-]

Откуда: Крым,Россия

Пост 29-Ноя-2013 02:17

[Цитировать] 

-Хороший, Плохой, Злой / The Good, The Bad and The Ugly/ Il buono, il brutto, il cattivo--Год выпуска: 1966
Страна: Италия, Испания, Германия
Жанр: Вестерн, Приключения
Продолжительность: ~02:54:23
Перевод: Профессиональный (многоголосый, закадровый)SomeWax
Субтитры: русские, полные, на дубляж (SRT/UTF-8)--Режиссер: Серджио Леоне /Sergio Leone--В ролях: Клинт Иствуд /Clint Eastwood, Ли Ван Клиф /Lee Van Cleef, Илай Уоллак /Eli Wallach, Альдо Джеффре /Aldo Giuffre, Луиджи Пистилли /Luigi Pistilli, Бенито Стефанелли /Benito Stefanelli, Марио Брега /Mario Brega
--Описание: В разгар гражданской войны таинственный стрелок скитается по просторам Дикого Запада. У него нет ни дома, ни друзей, ни компаньонов, пока он не встречает двоих незнакомцев, таких же безжалостных и циничных. По воле судьбы трое мужчин вынуждены объединить свои усилия в поисках украденного золота. Но совместная работа — не самое подходящее занятие для таких отъявленных бандитов, как они. Компаньоны вскоре понимают, что в их дерзком и опасном путешествии по разоренной войной стране самое важное — никому не доверять и держать пистолет наготове, если хочешь остаться в живых.-- --Тип релиза: BDRip
Контейнер: MKV
Видео кодек: H264 (AVC)
Аудио кодек: AC3 (Dolby Digital)
Видео: AVC at 3140 Кбит/сек, 1440 x 816 (2.353) at 23.976 fps
Аудио: AC-3 at 448 Кбит/сек, 6 канала(ов), 48,0 КГц MVO--

Скриншоты

MI

G:\видео\Хороший, плохой, злой [The Good, the Bad and the Ugly] (1966) BDRip 1080p.mkv
General
Complete name : G:\видео\Хороший, плохой, злой [The Good, the Bad and the Ugly] (1966) BDRip 1080p.mkv
Format : Matroska
File size : 4.37 GiB
Duration : 2h 54mn
Overall bit rate : 3 590 Kbps
Movie name : релиз от FREEISLAND.ORG
Encoded date : UTC 2012-02-02 12:25:41
Writing application : mkvmerge v5.2.1 ('A Far Off Place') built on Jan 2 2012 23:21:10
Writing library : libebml v1.2.3 + libmatroska v1.3.0
Video #1
ID : 1
Format : AVC
Format/Info : Advanced Video Codec
Format profile : High 10@L5.1
Format settings, CABAC : Yes
Format settings, ReFrames : 16 frames
Muxing mode : Container profile=Unknown@5.1
Codec ID : V_MPEG4/ISO/AVC
Duration : 2h 54mn
Bit rate : 3 070 Kbps
Nominal bit rate : 3 140 Kbps
Width : 1 440 pixels
Height : 816 pixels
Display aspect ratio : 2.35:1
Frame rate : 23.976 fps
Resolution : 10 bits
Colorimetry : 4:2:0
Scan type : Progressive
Bits/(Pixel*Frame) : 0.109
Stream size : 3.74 GiB (86%)
Writing library : x264 core 120 r2146+650 183470d
Encoding settings : cabac=1 / ref=16 / deblock=1:-1:0 / analyse=0x3:0x133 / me=umh / subme=11 / psy=1 / fade_compensate=0.00 / psy_rd=1.00:0.00 / mixed_ref=1 / me_range=64 / chroma_me=1 / trellis=2 / 8x8dct=1 / cqm=0 / deadzone=21,11 / fast_pskip=0 / chroma_qp_offset=-2 / threads=12 / sliced_threads=0 / nr=0 / decimate=1 / interlaced=0 / bluray_compat=0 / constrained_intra=0 / fgo=0 / bframes=10 / b_pyramid=2 / b_adapt=2 / b_bias=0 / direct=1 / weightb=1 / open_gop=0 / weightp=2 / keyint=230 / keyint_min=23 / scenecut=40 / intra_refresh=0 / rc=2pass / mbtree=0 / bitrate=3140 / ratetol=1.0 / qcomp=1.00 / qpmin=0 / qpmax=48 / qpstep=4 / cplxblur=20.0 / qblur=0.5 / ip_ratio=1.40 / pb_ratio=1.30 / aq=1:1.00
Color primaries : BT.709-5, BT.1361, IEC 61966-2-4, SMPTE RP177
Transfer characteristics : BT.709-5, BT.1361
Matrix coefficients : BT.709-5, BT.1361, IEC 61966-2-4 709, SMPTE RP177
Audio #2
ID : 2
Format : AC-3
Format/Info : Audio Coding 3
Format_Settings_ModeExtension : CM (complete main)
Codec ID : A_AC3
Duration : 2h 54mn
Bit rate mode : Constant
Bit rate : 448 Kbps
Channel(s) : 6 channels
Channel positions : Front: L C R, Side: L R, LFE
Sampling rate : 48.0 KHz
Stream size : 559 MiB (12%)
Title : MVO | многоголосый | (SomeWax)
Language : Russian
Text #3
ID : 3
Format : UTF-8
Codec ID : S_TEXT/UTF8
Codec ID/Info : UTF-8 Plain Text
Language : Russian
[Торрент-статистика]
[Профиль]  [ЛС] 

ArtZak

Пол:

Стаж: 9 лет 1 месяц

Сообщений: 2831

Репутация: 1366 [+] [-]

Откуда: Россия

Пост 29-Ноя-2013 02:58 (спустя 40 минут)

[Цитировать] 

3232fox, +3 от меня, но через сутки ab
P.S. Старайся в следующих релизах зеленым шрифтом не пользоваться в оформлении - до этого замечаний тебе не делал: преррогатива использования зеленого и красного шрифтов - у админов и модераторов. А так все ОК - можно даже не просматривать твои раздачи, сразу ставить "проверено" - заметно вырос ab
[Торрент-статистика]
[Профиль]  [ЛС] 

3232fox ®

Пол:

Стаж: 7 лет 8 месяцев

Сообщений: 586

Репутация: 426 [+] [-]

Откуда: Крым,Россия

Пост 29-Ноя-2013 03:13 (спустя 15 минут)

[Цитировать] 

385223232fox, +3 от меня, но через сутки ab
P.S. Старайся в следующих релизах зеленым шрифтом не пользоваться в оформлении - до этого замечаний тебе не делал: преррогатива использования зеленого и красного шрифтов - у админов и модераторов. А так все ОК - можно даже не просматривать твои раздачи, сразу ставить "проверено" - заметно вырос ab
Спасибо, но я пользовался темно-зелёнылзелёный давно не трогаю,или разници нет.Спомнился мне этот фильм,я его в 90х раз 20 смотрел по кабельному без перевода.Наконец посмотрю с переводом через 20 лет
[Торрент-статистика]
[Профиль]  [ЛС] 

ArtZak

Пол:

Стаж: 9 лет 1 месяц

Сообщений: 2831

Репутация: 1366 [+] [-]

Откуда: Россия

Пост 29-Ноя-2013 03:53 (спустя 39 минут)

[Цитировать] 

38523темно-зелёныл ,а зелёный давно не трогаю,или разници нет
Разницы нету...
38523Спомнился мне этот фильм,я его в 90х раз 20 смотрел по кабельному без перевода.Наконец посмотрю с переводом через 20 лет
Иногда приятно бывает пересмотрев какой-нибудь фильм из прошлого - нагнать воспоминания "того" уже прошедшего времени, которое для каждого по-своему приятное или неприятное было...
[Торрент-статистика]
[Профиль]  [ЛС] 
Показать сообщения:    
Ответить на тему

Текущее время: Сегодня 14:24

Часовой пояс: GMT + 4



Вы не можете начинать темы
Вы не можете отвечать на сообщения
Вы не можете редактировать свои сообщения
Вы не можете удалять свои сообщения
Вы не можете голосовать в опросах
Вы не можете прикреплять файлы к сообщениям
Вы не можете скачивать файлы