Сладкая жизнь / La dolce vita (Федерико Феллини) [1959 г., драма, комедия]

Ответить на тему
 
Автор
Сообщение

alien.09 ®

Пол:

Стаж: 7 лет 7 месяцев

Сообщений: 623

Репутация: 570 [+] [-]

Пост 21-Май-2013 02:52

[Цитировать] 

--Сладкая жизнь / La dolce vita--Год выпуска: 1959
Страна: Италия, Франция
Жанр: драма, комедия
Продолжительность: 02:55:47
Перевод: Профессиональный (двухголосый закадровый) SomeWax-Режиссер: Федерико Феллини-В ролях: Марчелло Мастроянни, Анита Экберг, Адриано Челентано, Анук Эме, Ивонн Фюрно, Магали Ноэль, Ален Кюни, Аннибале Нинки, Надя Грей, Лекс Баркер, Вальтер Сантессо-Описание: Журналист Марчелло — наблюдатель и участник всех эпизодов жизни итальянской элиты конца 50-х годов. Женщины как тени сменяют друг друга, не задевая его чувств, даже явление американской кинодивы Сильвии, воплощения сексуальности и порока, не выводит его из ступора. Внезапное самоубийство его друга Штайнера, пришедшего к мысли о бессмысленности их жизни, приводит Марчелло к катарсису, но надолго ли…-- --Видео: AVC at 2800 Кбит/сек, 1280 x 544 (2.353) at 23.976 fps
Аудио: AC-3 at 192 Кбит/сек, 2 канала, 48,0 КГц

MI

Общее
Уникальный идентификатор : 251229916747386369222865042774885130518 (0xBD011F38B3FD33F88A4908A7D7E3E116)
Полное имя : C:\Users\Gary\Внеха\Сладкая жизнь.mkv
Формат : Matroska
Версия формата : Version 2
Размер файла : 3,68 Гбайт
Продолжительность : 2 ч. 55 м.
Общий поток : 2995 Кбит/сек
Название фильма : Сладкая жизнь / La Dolce Vita (1960) / bdrip by egiko
Кодирование произвёл : egiko [bdrip-avc] source: BD-Remux
Дата кодирования : UTC 2013-05-20 14:43:58
Программа кодирования : mkvmerge v5.3.0 ('I could have danced') built on Mar 4 2012 19:18:32
Библиотека кодирования : libebml v1.2.3 + libmatroska v1.3.0
TITLE : La dolce vita (1960)
DATE : 1960
DIRECTOR : Federico Fellini
DATE_ENCODED : 2012-12-08
Attachment : Yes
Видео
Идентификатор : 1
Формат : AVC
Формат/Информация : Advanced Video Codec
Профиль формата : High@L4.1
Параметр CABAC формата : Да
Параметр ReFrames формата : 9 кадров
Режим смешивания : Header stripping
Идентификатор кодека : V_MPEG4/ISO/AVC
Продолжительность : 2 ч. 55 м.
Битрейт : 2800 Кбит/сек
Ширина : 1280 пикселей
Высота : 544 пикселя
Соотношение сторон : 2,35:1
Режим частоты кадров : Постоянный
Частота кадров : 23,976 кадра/сек
Цветовое пространство : YUV
Субдискретизация насыщенности : 4:2:0
Битовая глубина : 8 бит
Тип развёртки : Прогрессивная
Бит/(Пиксели*Кадры) : 0.168
Размер потока : 3,37 Гбайт (92%)
Заголовок : Сладкая жизнь / La Dolce Vita
Библиотека кодирования : x264 core 129 r2230 1cffe9f
Настройки программы : cabac=1 / ref=9 / deblock=1:-1:-1 / analyse=0x3:0x133 / me=umh / subme=10 / psy=1 / psy_rd=1.00:0.15 / mixed_ref=1 / me_range=32 / chroma_me=1 / trellis=2 / 8x8dct=1 / cqm=0 / deadzone=21,11 / fast_pskip=1 / chroma_qp_offset=-3 / threads=6 / lookahead_threads=1 / sliced_threads=0 / nr=0 / decimate=1 / interlaced=0 / bluray_compat=0 / constrained_intra=0 / bframes=10 / b_pyramid=2 / b_adapt=2 / b_bias=0 / direct=3 / weightb=1 / open_gop=0 / weightp=2 / keyint=240 / keyint_min=23 / scenecut=40 / intra_refresh=0 / rc=2pass / mbtree=0 / bitrate=2800 / ratetol=1.0 / qcomp=0.60 / qpmin=0 / qpmax=69 / qpstep=4 / cplxblur=20.0 / qblur=0.5 / ip_ratio=1.40 / pb_ratio=1.30 / aq=1:1.00
Язык : Italian
Default : Да
Forced : Нет
Аудио
Идентификатор : 2
Формат : AC-3
Формат/Информация : Audio Coding 3
Расширение режима : CM (complete main)
Параметр Endianness формата : Big
Режим смешивания : Header stripping
Идентификатор кодека : A_AC3
Продолжительность : 2 ч. 55 м.
Вид битрейта : Постоянный
Битрейт : 192 Кбит/сек
Каналы : 2 канала
Расположение каналов : Front: L R
Частота : 48,0 КГц
Битовая глубина : 16 бит
Метод сжатия : С потерями
Размер потока : 241 Мбайт (6%)
Заголовок : SomeWax, rus dvo
Язык : Russian
Default : Да
Forced : Нет

Скриншоты


_________________
Правообладатели, убейтесь об эту надпись.
[Торрент-статистика]
[Профиль]  [ЛС] 
Показать сообщения:    
Ответить на тему

Текущее время: Сегодня 17:55

Часовой пояс: GMT + 4



Вы не можете начинать темы
Вы не можете отвечать на сообщения
Вы не можете редактировать свои сообщения
Вы не можете удалять свои сообщения
Вы не можете голосовать в опросах
Вы не можете прикреплять файлы к сообщениям
Вы не можете скачивать файлы