Клеопатра / Cleopatra (Джозеф Лео Манкевич / Joseph L. Mankiewicz) [1963, США, Великобритания, Швейцария, мелодрама, драма, биография, история, HDTVRip 720p] DUB, MVO + original eng + Sub rus, eng

Ответить на тему
 
Автор
Сообщение

diim ®

Пол:

Стаж: 5 лет 10 месяцев

Сообщений: 1038

Репутация: 112 [+] [-]

Пост 01-Дек-2011 13:28

[Цитировать] 

Клеопатра / Cleopatra
Страна: США, Великобритания, Швейцария
Студия: 20th Century Fox
Жанр: мелодрама, драма, биография, история
Год выпуска: 1963
Продолжительность: 04:03:07
Перевод 1: Профессиональный (дублированный), со вставками многоголосого в местах отсутствия дубляжа.
Перевод 2: Профессиональный (многоголосый закадровый)
Cубтитры: Русские, Английские
Оригинальная аудиодорожка: Английская
Режиссер: Джозеф Лео Манкевич / Joseph L. Mankiewicz
В ролях: Элизабет Тейлор / Ричард Бёртон / Рекс Харрисон / Памела Браун / Джордж Коул / Хьюм Кронин / Чезаре Данова / Кеннет Хейг / Эндрю Кир / Мартин Ландау
Описание: Прекрасная Клеопатра, знаменитая царица Египта, готова на все ради сохранения величия своего народа. Соблазняя великих правителей Рима — Цезаря, Марка Антония — она мечтает об объединении Египта и Рима в одну большую империю.
Доп. информация:
  • Дубляж заново синхронизирован.
  • Многоголосый закадровый получен наложением чистого перевода на оригинальный центральный канал дорожки вещателя.

Качество: HDTVRip 720p
Контейнер: MKV
Видео: x264@4.1, 2 pass, 1280x580, 2.2:1, 23.976 fps, 4172 Kbps
Аудио 1: Советский дубляж, АС3, 2ch, 48 kHz, 192 Kbps
Аудио 2: Профессиональный многоголосый закадровый, AC3, 6ch, 48 kHz, 448 Kbps
Аудио 3: Английский, AC3, 6ch, 48 kHz, 448 Kbps
Формат субтитров: softsub (SRT)
Cкачать сэмпл

MediaInfo

General
Complete name : L:\Cleopatra.1963.720p.HDTV.DD5.1.Rus.Eng.mkv
Format : Matroska
File size : 8.94 GiB
Duration : 4h 3mn
Overall bit rate : 5 254 Kbps
Movie name : Cleopatra (1963)
Encoded date : UTC 2010-07-23 17:13:18
Writing application : mkvmerge v4.1.1 ('Bouncin' Back') built on Jul 3 2010 22:54:08
Writing library : libebml v1.0.0 + libmatroska v1.0.0
Video
ID : 1
Format : AVC
Format/Info : Advanced Video Codec
Format profile : High@L4.1
Format settings, CABAC : Yes
Format settings, ReFrames : 11 frames
Muxing mode : Container profile=Unknown@4.1
Codec ID : V_MPEG4/ISO/AVC
Duration : 4h 3mn
Bit rate : 4 062 Kbps
Nominal bit rate : 4 172 Kbps
Width : 1 280 pixels
Height : 580 pixels
Display aspect ratio : 2.2:1
Frame rate : 23.976 fps
Resolution : 8 bits
Colorimetry : 4:2:0
Scan type : Progressive
Bits/(Pixel*Frame) : 0.228
Stream size : 6.91 GiB (77%)
Title : HDTV 720p
Writing library : x264 core 84 r1400M 20fa784
Encoding settings : cabac=1 / ref=11 / deblock=1:-3:-3 / analyse=0x3:0x133 / me=umh / subme=10 / psy=1 / psy_rd=1.0:0.0 / mixed_ref=1 / me_range=24 / chroma_me=1 / trellis=2 / 8x8dct=1 / cqm=0 / deadzone=21,11 / fast_pskip=0 / chroma_qp_offset=-2 / threads=12 / sliced_threads=0 / nr=0 / decimate=0 / mbaff=0 / constrained_intra=0 / bframes=8 / b_pyramid=2 / b_adapt=2 / b_bias=0 / direct=3 / wpredb=1 / wpredp=2 / keyint=250 / keyint_min=25 / scenecut=40 / intra_refresh=0 / rc_lookahead=60 / rc=2pass / mbtree=1 / bitrate=4172 / ratetol=1.0 / qcomp=0.85 / qpmin=10 / qpmax=51 / qpstep=4 / cplxblur=20.0 / qblur=0.5 / ip_ratio=1.40 / aq=1:0.80 / pulldown=0 / nal_hrd=0
Audio #1
ID : 2
Format : AC-3
Format/Info : Audio Coding 3
Format_Settings_ModeExtension : CM (complete main)
Codec ID : A_AC3
Duration : 4h 3mn
Bit rate mode : Constant
Bit rate : 192 Kbps
Channel(s) : 2 channels
Channel positions : Front: L R
Sampling rate : 48.0 KHz
Stream size : 334 MiB (4%)
Title : Dubbed
Language : Russian
Audio #2
ID : 3
Format : AC-3
Format/Info : Audio Coding 3
Format_Settings_ModeExtension : CM (complete main)
Codec ID : A_AC3
Duration : 4h 3mn
Bit rate mode : Constant
Bit rate : 448 Kbps
Channel(s) : 6 channels
Channel positions : Front: L C R, Side: L R, LFE
Sampling rate : 48.0 KHz
Stream size : 780 MiB (9%)
Title : MVO
Language : Russian
Audio #3
ID : 4
Format : AC-3
Format/Info : Audio Coding 3
Format_Settings_ModeExtension : CM (complete main)
Codec ID : A_AC3
Duration : 4h 3mn
Bit rate mode : Constant
Bit rate : 448 Kbps
Channel(s) : 6 channels
Channel positions : Front: L C R, Side: L R, LFE
Sampling rate : 48.0 KHz
Stream size : 780 MiB (9%)
Title : English DD5.1
Text #1
ID : 5
Format : UTF-8
Codec ID : S_TEXT/UTF8
Codec ID/Info : UTF-8 Plain Text
Title : Russian
Language : Russian
Text #2
ID : 6
Format : UTF-8
Codec ID : S_TEXT/UTF8
Codec ID/Info : UTF-8 Plain Text
Title : English
Language : English

Скриншоты

[Торрент-статистика]
[Профиль]  [ЛС] 
Показать сообщения:    
Ответить на тему

Текущее время: Сегодня 21:16

Часовой пояс: GMT + 4



Вы не можете начинать темы
Вы не можете отвечать на сообщения
Вы не можете редактировать свои сообщения
Вы не можете удалять свои сообщения
Вы не можете голосовать в опросах
Вы не можете прикреплять файлы к сообщениям
Вы не можете скачивать файлы