Крестный отец. Трилогия / The Godfather. Trilogy (1972 – 1990) BDRip 720p

Ответить на тему
 
Автор
Сообщение

AZLK ®

Пол:

Стаж: 9 лет

Сообщений: 110

Репутация: 11 [+] [-]

Откуда: Москва, Солнцево

Пост 25-Фев-2012 01:32

[Цитировать] 

Крестный отец. Трилогия / The Godfather. Trilogy (1972 – 1990) BDRip 720p-- Крестный отец / The Godfather
«Настоящая сила не может быть дана, она может быть взята...»
Год выпуска: 1972
Страна: США
Жанр: Триллер, драма, криминал
Продолжительность: 02:57:09
Перевод: Профессиональный (многоголосый, закадровый)
Режиссер: Френсис Форд Коппола
В ролях: Марлон Брандо,Аль Пачино,Джеймс Каан,Ричард С. Кастеллано,Роберт Дюваль,Стерлинг Хейден,Джон Марли,Ричард Конте,Аль Леттьери,Дайан Китон
Описание: Криминальная сага, повествующая о нью-йоркской сицилийской мафиозной семье Корлеоне. Фильм охватывает период 1945-1955 годов. Глава семьи, Дон Вито Корлеоне, выдаёт замуж свою дочь. В это время со Второй мировой войны возвращается его любимый сын Майкл. Майкл, герой войны, гордость семьи, не выражает желания заняться жестоким семейным бизнесом. Дон Корлеоне ведёт дела по старым правилам, но наступают иные времена, и появляются люди, желающие изменить сложившиеся порядки. На Дона Корлеоне совершается покушение.
Он выживает, но временно теряет возможность управлять делами семьи. Благополучие и даже выживание семьи поставлено под угрозу. И здесь Майклу приходится вмешаться. Ради семьи он совершает двойное убийство, что вынуждает его некоторое время скрываться в Италии. Там он женится, но при покушении на него погибает его молодая жена. Майкл возвращается в Нью-Йорк и всерьёз начинает заниматься делами семьи, сам становясь в итоге её главой.
Бюджет Фильма:$6 000 000
Кассовые сборы:$245 066 411
Тип релиза: BDRip (720p)
Контейнер: MKV
Видео кодек: H264 (AVC)
Аудио кодек: AC3 (Dolby Digital)
Видео: 1280x720, 2 651 Кбит/сек, 23,976 кадр/сек, AVC, x264, 16:9, 0.116 Бит
Аудио: AC-3, 384 Кбит/сек, 6 канала(ов), 48,0 КГц
Размер: 3.71 GB

info

Общее
Уникальный идентификатор : 203393912557004539240476401103582538273 (0x99043E1F9E5BF652BF265B198A442A21)
Полное имя : E:\The_Godfather\The_Godfather_Part_I_1972.mkv
Формат : Matroska
Версия формата : Version 2
Размер файла : 3,71 Гбайт
Продолжительность : 2 ч. 57 м.
Режим общего битрейта : Переменный
Общий поток : 3001 Кбит/сек
Название фильма : Rip by victordan 95
Дата кодирования : UTC 2011-01-01 18:42:32
Программа кодирования : mkvmerge v3.2.0 ('Beginnings') built on Feb 12 2010 16:46:17
Библиотека кодирования : libebml v0.7.9 + libmatroska v0.8.1
Видео
Идентификатор : 1
Формат : AVC
Формат/Информация : Advanced Video Codec
Профиль формата : High@L4.1
Параметр CABAC формата : Да
Параметр ReFrames формата : 3 кадра
Параметр GOP формата : M=4, N=24
Идентификатор кодека : V_MPEG4/ISO/AVC
Продолжительность : 2 ч. 57 м.
Вид битрейта : Переменный
Битрейт : 2651 Кбит/сек
Максимальный битрейт : 17,5 Мбит/сек
Ширина : 1280 пикселей
Высота : 720 пикселей
Соотношение сторон : 16:9
Частота кадров : 23,976 кадра/сек
Цветовое пространство : YUV
Субдискретизация насыщенности : 4:2:0
Битовая глубина : 8 бит
Тип развёртки : Прогрессивная
Бит/(Пиксели*Кадры) : 0.120
Размер потока : 3,16 Гбайт (85%)
Библиотека кодирования : x264 core 108 r1788 c764e29
Настройки программы :
Язык : English
Default : Да
Forced : Нет
Аудио
Идентификатор : 2
Формат : AC-3
Формат/Информация : Audio Coding 3
Расширение режима : CM (complete main)
Идентификатор кодека : A_AC3
Продолжительность : 2 ч. 57 м.
Вид битрейта : Постоянный
Битрейт : 384 Кбит/сек
Каналы : 6 каналов
Расположение каналов : Front: L C R, Side: L R, LFE
Частота : 48,0 КГц
Битовая глубина : 16 бит
Метод сжатия : С потерями
Размер потока : 487 Мбайт (13%)
Заголовок : Киномания
Язык : Russian
Default : Да
Forced : Нет

Скриншоты


-- Крестный отец 2 / The Godfather: Part II
«The saga continues.»
Год выпуска: 1974
Страна: США
Жанр: Триллер, драма, криминал
Продолжительность: 03:22:06
Перевод: Профессиональный (многоголосый, закадровый)
Режиссер: Френсис Форд Коппола
В ролях: Аль Пачино, Роберт Де Ниро, Дайан Китон, Роберт Дювалл, Джон Казале, Талия Шайр, Ли Страсберг, Майкл В., Гаццо Г.Д., Спрэдлин Ричард Брайт
Описание: В центре драмы представители нового поколения гангстерского клана — дона Корлеоне и его сына, для которых не существует моральных преград на пути достижения поставленых целей. Они превращают мафию, построенную по патриархальным, еще сицилийским законам, в весьма прагматичную, жесткую корпорацию, плавно интегрирующуюся в большой бизнес Америки.
Бюджет Фильма:$13 000 000
Кассовые сборы:$102 600 000
Тип релиза: BDRip (720p)
Контейнер: MKV
Видео кодек: H264 (AVC)
Аудио кодек: AC3 (Dolby Digital)
Видео: 1280x720, 2 173 Кбит/сек, 23,976 кадр/сек, AVC, x264, 16:9, 0.095 Бит
Аудио: AC-3, 448 Кбит/сек, 6 канала(ов), 48,0 КГц
Размер: 3.66 GB

info

Общее
Уникальный идентификатор : 189360159829353751776119464681565891572 (0x8E7570B188500F94AD2B16CE3B70ABF4)
Полное имя : E:\The_Godfather\The_Godfather_Part_II_1974.mkv
Формат : Matroska
Версия формата : Version 2
Размер файла : 3,66 Гбайт
Продолжительность : 3 ч. 22 м.
Режим общего битрейта : Переменный
Общий поток : 2591 Кбит/сек
Название фильма : Rip by victordan 95
Дата кодирования : UTC 2010-12-31 17:57:44
Программа кодирования : mkvmerge v3.2.0 ('Beginnings') built on Feb 12 2010 16:46:17
Библиотека кодирования : libebml v0.7.9 + libmatroska v0.8.1
Attachment : Yes / Yes / Yes
Видео
Идентификатор : 1
Формат : AVC
Формат/Информация : Advanced Video Codec
Профиль формата : High@L4.1
Параметр CABAC формата : Да
Параметр ReFrames формата : 3 кадра
Параметр GOP формата : M=4, N=24
Идентификатор кодека : V_MPEG4/ISO/AVC
Продолжительность : 3 ч. 22 м.
Вид битрейта : Переменный
Битрейт : 2173 Кбит/сек
Максимальный битрейт : 17,5 Мбит/сек
Ширина : 1280 пикселей
Высота : 720 пикселей
Соотношение сторон : 16:9
Частота кадров : 23,976 кадра/сек
Цветовое пространство : YUV
Субдискретизация насыщенности : 4:2:0
Битовая глубина : 8 бит
Тип развёртки : Прогрессивная
Бит/(Пиксели*Кадры) : 0.098
Размер потока : 2,95 Гбайт (81%)
Библиотека кодирования : x264 core 108 r1788 c764e29
Настройки программы :
Язык : English
Default : Да
Forced : Нет
Аудио
Идентификатор : 2
Формат : AC-3
Формат/Информация : Audio Coding 3
Расширение режима : CM (complete main)
Идентификатор кодека : A_AC3
Продолжительность : 3 ч. 22 м.
Вид битрейта : Постоянный
Битрейт : 448 Кбит/сек
Каналы : 6 каналов
Расположение каналов : Front: L C R, Side: L R, LFE
Частота : 48,0 КГц
Битовая глубина : 16 бит
Метод сжатия : С потерями
Размер потока : 648 Мбайт (17%)
Заголовок : AC3 5.1 448 Kbps [Киномания]
Язык : Russian
Default : Да
Forced : Нет

Скриншоты


-- Крестный отец 3 / The Godfather: Part III
«Настоящую власть никто не дает. Её нужно взять.»
Год выпуска: 1990
Страна: США
Жанр: Триллер, драма, криминал
Продолжительность: 02:50:15
Перевод: Профессиональный (многоголосый, закадровый)
Режиссер: Френсис Форд Коппола
В ролях: Аль Пачино, Дайан Китон, Талия Шайр, Энди Гарсиа, Эли Уоллах, Джо Мантенья, Джордж Хэмилтон, Бриджит Фонда, София Коппола, Раф Валлоне
Описание: Заключительная часть знаменитой гангстерской эпопеи, в которой продолжается рассказ о делах «семьи» дона Корлеоне. Через двадцать лет после событий, описанных в предыдущей картине, Майкл Корлеоне решает заняться легальным бизнесом. Однако противодействие внутри клана заставляет его вспомнить об испытанных кровавых методах общения с противником, что приводит к трагическому итогу.
Бюджет Фильма:$54 000 000
Кассовые сборы:$136 766 062
Тип релиза: BDRip (720p)
Контейнер: MKV
Видео кодек: H264 (AVC)
Аудио кодек: AC3 (Dolby Digital)
Видео: 1280x720, 2 699 Кбит/сек, 23,976 кадр/сек, AVC, x264, 16:9, 0.119 Бит
Аудио: AC-3, 448 Кбит/сек, 6 канала(ов), 48,0 КГц
Размер: 3.74 GB

info

Общее
Уникальный идентификатор : 174270773963162922747964310986045492032 (0x831B548808CB553383097DD4A74B8B40)
Полное имя : E:\The_Godfather\The_Godfather_Part_III_1990.mkv
Формат : Matroska
Версия формата : Version 2
Размер файла : 3,74 Гбайт
Продолжительность : 2 ч. 50 м.
Режим общего битрейта : Переменный
Общий поток : 3143 Кбит/сек
Название фильма : Rip by victordan 95
Дата кодирования : UTC 2011-01-04 05:32:05
Программа кодирования : mkvmerge v3.2.0 ('Beginnings') built on Feb 12 2010 16:46:17
Библиотека кодирования : libebml v0.7.9 + libmatroska v0.8.1
Attachment : Yes / Yes / Yes
Видео
Идентификатор : 1
Формат : AVC
Формат/Информация : Advanced Video Codec
Профиль формата : High@L4.1
Параметр CABAC формата : Да
Параметр ReFrames формата : 3 кадра
Параметр GOP формата : M=4, N=24
Идентификатор кодека : V_MPEG4/ISO/AVC
Продолжительность : 2 ч. 50 м.
Вид битрейта : Переменный
Битрейт : 2699 Кбит/сек
Максимальный битрейт : 17,5 Мбит/сек
Ширина : 1280 пикселей
Высота : 720 пикселей
Соотношение сторон : 16:9
Частота кадров : 23,976 кадра/сек
Цветовое пространство : YUV
Субдискретизация насыщенности : 4:2:0
Битовая глубина : 8 бит
Тип развёртки : Прогрессивная
Бит/(Пиксели*Кадры) : 0.122
Размер потока : 3,13 Гбайт (84%)
Библиотека кодирования : x264 core 108 r1788 c764e29
Настройки программы :
Язык : English
Default : Да
Forced : Нет
Аудио
Идентификатор : 2
Формат : AC-3
Формат/Информация : Audio Coding 3
Расширение режима : CM (complete main)
Идентификатор кодека : A_AC3
Продолжительность : 2 ч. 50 м.
Вид битрейта : Постоянный
Битрейт : 448 Кбит/сек
Каналы : 6 каналов
Расположение каналов : Front: L C R, Side: L R, LFE
Частота : 48,0 КГц
Битовая глубина : 16 бит
Метод сжатия : С потерями
Размер потока : 546 Мбайт (14%)
Заголовок : AC3 5.1 448 Kbps [Киномания]
Язык : Russian
Default : Да
Forced : Нет

Скриншоты


[Торрент-статистика]
[Профиль]  [ЛС] 
Показать сообщения:    
Ответить на тему

Текущее время: Сегодня 08:47

Часовой пояс: GMT + 4



Вы не можете начинать темы
Вы не можете отвечать на сообщения
Вы не можете редактировать свои сообщения
Вы не можете удалять свои сообщения
Вы не можете голосовать в опросах
Вы не можете прикреплять файлы к сообщениям
Вы не можете скачивать файлы