Бей первым, Фредди! / Sla Forst, Frede! (Эрик Баллинг) [1965 г., Комедия, HDTVRip 720p]

Ответить на тему
 
Автор
Сообщение

renta23 ®

Пол:

Стаж: 6 лет 3 месяца

Сообщений: 42

Репутация: 39 [+] [-]

Откуда: Брянск

Пост 17-Июл-2015 14:35

[Цитировать] 

Бей первым, Фредди!
Sla Forst, Frede!
---Год выпуска: 1965
Страна: Дания
Жанр: Комедия
Продолжительность: 01:34:01---Перевод: Профессиональный (полное дублирование)
Режиссер: Эрик Баллинг
В ролях: Мортен Грунвальд, Ове Спрогёе, Эсси Перссон, Поуль Бундгор, Мартин Хансен, Джон Витти,г Фрэнки Стеель, Ёрген Блакстед, Вальсё Хольм, Лисбет Франдсен---Описание: Фредди — продавец игрушек и приколов, возвращается из командировки домой в Данию с полным чемоданом товара, намереваясь расширить свой бизнес. Но судьба распоряжается по-другому: вместо игрушечного бизнеса он вовлечен в недетскую войну двух разведок. Фредди становится подсадной уткой и должен играть роль шпиона, а для подстраховки к нему приставлен настоящий суперагент Смит. Как оказалось, Фредди не так прост. Он сам знает, как водить врага за нос, разрушать все его коварные планы и уничтожать секретные ракетные установки.- -Тип релиза: HDTVRip 720p
Контейнер: MKV
Видео кодек: H264
Аудио кодек: AC3
Видео: MPEG4 Video (H264), 1280x720, 25fps, 5000 Kbps
Аудио #1: Русский - Dolby AC3, 48000 Hz, 2ch, 192 kbps
Аудио #2: Английский - Dolby AC3, 48000 Hz, 2ch, 384 kbps
--Сэмпл

MediaInfo:

General
Unique ID : 183830212372781701365156342595723989145 (0x8A4C693BD46EBC1BAC7B3409C4181099)
Complete name : F:Torrent 21965.Sla.Forst,Frede.renta23.mkv
Format : Matroska
Format version : Version 4 / Version 2
File size : 3.66 GiB
Duration : 1h 34mn
Overall bit rate : 5 577 Kbps
Movie name : 1965 Бей первым, Фредди! / renta23
Encoded date : UTC 2015-07-08 08:12:49
Writing application : mkvmerge v8.1.0 ('Psychedelic Postcard') 32bit
Writing library : libebml v1.3.1 + libmatroska v1.4.2
DURATION : 01:34:01.152000000
NUMBER_OF_FRAMES : 176286
NUMBER_OF_BYTES : 270775296
_STATISTICS_WRITING_APP : mkvmerge v8.1.0 ('Psychedelic Postcard') 32bit
_STATISTICS_WRITING_DATE_UTC : 2015-07-08 08:12:49
_STATISTICS_TAGS : BPS DURATION NUMBER_OF_FRAMES NUMBER_OF_BYTES
Video
ID : 1
Format : AVC
Format/Info : Advanced Video Codec
Format profile : High@L4.1
Format settings, CABAC : Yes
Format settings, ReFrames : 7 frames
Codec ID : V_MPEG4/ISO/AVC
Duration : 1h 34mn
Bit rate : 5 000 Kbps
Width : 1 280 pixels
Height : 720 pixels
Display aspect ratio : 16:9
Frame rate mode : Constant
Frame rate : 25.000 fps
Color space : YUV
Chroma subsampling : 4:2:0
Bit depth : 8 bits
Scan type : Progressive
Bits/(Pixel*Frame) : 0.217
Stream size : 3.21 GiB (88%)
Title : 1965 Бей первым, Фредди!
Writing library : x264 core 146 r2538 121396c
Encoding settings : cabac=1 / ref=8 / deblock=1:-1:-1 / analyse=0x3:0x113 / me=umh / subme=11 / psy=1 / psy_rd=1.15:0.25 / mixed_ref=1 / me_range=24 / chroma_me=1 / trellis=2 / 8x8dct=1 / cqm=0 / deadzone=21,11 / fast_pskip=0 / chroma_qp_offset=-4 / threads=12 / lookahead_threads=3 / sliced_threads=0 / nr=0 / decimate=0 / interlaced=0 / bluray_compat=0 / constrained_intra=0 / bframes=12 / b_pyramid=1 / b_adapt=2 / b_bias=0 / direct=3 / weightb=1 / open_gop=0 / weightp=2 / keyint=250 / keyint_min=25 / scenecut=40 / intra_refresh=0 / rc_lookahead=50 / rc=2pass / mbtree=1 / bitrate=5000 / ratetol=1.0 / qcomp=0.60 / qpmin=0 / qpmax=69 / qpstep=4 / cplxblur=20.0 / qblur=0.5 / vbv_maxrate=14000 / vbv_bufsize=14000 / nal_hrd=none / filler=0 / ip_ratio=1.40 / aq=1:1.00
Language : English
Default : Yes
Forced : No
Audio #1
ID : 2
Format : AC-3
Format/Info : Audio Coding 3
Mode extension : CM (complete main)
Format settings, Endianness : Big
Codec ID : A_AC3
Duration : 1h 34mn
Bit rate mode : Constant
Bit rate : 192 Kbps
Channel(s) : 2 channels
Channel positions : Front: L R
Sampling rate : 48.0 KHz
Bit depth : 16 bits
Compression mode : Lossy
Stream size : 129 MiB (3%)
Title : Дубляж
Language : Russian
Default : Yes
Forced : No
Audio #2
ID : 3
Format : AC-3
Format/Info : Audio Coding 3
Mode extension : CM (complete main)
Format settings, Endianness : Big
Codec ID : A_AC3
Duration : 1h 34mn
Bit rate mode : Constant
Bit rate : 384 Kbps
Channel(s) : 2 channels
Channel positions : Front: L R
Sampling rate : 48.0 KHz
Bit depth : 16 bits
Compression mode : Lossy
Stream size : 258 MiB (7%)
Language : English
Default : No
Forced : No

Скриншоты:


[Торрент-статистика]
[Профиль]  [ЛС] 

Dadhi

Стаж: 8 лет 11 месяцев

Сообщений: 39

Репутация: 41 [+] [-]

Пост 19-Июл-2015 11:56 (спустя 1 день 21 час)

[Цитировать] 

это действительно КЛАССИКА!
[Торрент-статистика]
[Профиль]  [ЛС] 
Показать сообщения:    
Ответить на тему

Текущее время: Сегодня 09:28

Часовой пояс: GMT + 4



Вы не можете начинать темы
Вы не можете отвечать на сообщения
Вы не можете редактировать свои сообщения
Вы не можете удалять свои сообщения
Вы не можете голосовать в опросах
Вы не можете прикреплять файлы к сообщениям
Вы не можете скачивать файлы