Чудовище / L'animal (Клод Зиди) [1977 г., Комедия, HDTVRip 720p]

Ответить на тему
 
Автор
Сообщение

renta23 ®

Пол:

Стаж: 6 лет 3 месяца

Сообщений: 42

Репутация: 39 [+] [-]

Откуда: Брянск

Пост 16-Окт-2014 15:56

[Цитировать] 

Чудовище
L'animal
--- Год выпуска: 1977
Страна: Франция
Жанр: Комедия
Продолжительность: 01:36:29---Перевод 1: Профессиональный (полное дублирование) Советский дубляж - киностудия «Мосфильм»
Перевод 2: Профессиональный (многоголосый закадровый)
Cубтитры: Русские
Роли дублируют:
Мишель Гоше, Бруно Феррари (Жан-Поль Бельмондо) - Николай Караченцев
Джейн Гарднер (Рэкуэл Уэлш) - Лариса Данилина
Серджио Компане (Альдо Мацционе) - Александр Белявский
Фешнер (Жюльен Гийомар) - Феликс Яворский
Ясент (Шарль Жерар) - Юрий Саранцев
Граф (Раймон Жером) - Владимир Дружников
Постановщик (Клод Шаброль) - Владимир Балашов
Журналист (Ив Мурузи) - Артем Карапетян
Режиссер: Клод Зиди
В ролях: Жан Поль Бельмондо, Клод Шаброль, Шарль Жерар, Ив Мороси, Джонни Халлидей, Джейн Биркин, Раймон Жером, Дани Саваль, Рэкел Уэлч, Марио Давид---Описание: У каскадера Мишеля Гоше чудовищный характер. Поэтому ни одна киностудия не хочет иметь с ним дела, а невеста готова бежать из-под венца. Но вот, в Париж на съемки приезжает известный актер Бруно Феррари. В его новом фильме — сплошные трюки, один сложнее другого. И совершенно ясно, что с ними не справиться никому, кроме Мишеля. Стоит ли говорить о том, что актер и каскадер похожи друг на друга, как близнецы-братья?
Занимает 42-е место по посещаемости среди зарубежных фильмов в советском кинопрокате.
Большинство каскадёрских трюков в фильме Бельмондо исполнял сам. Это стоило ему многочисленных травм: вывих лодыжки после сцены на ступенях Сакр-Кёр, вывих и проникающая рана после сцены скатывания по лестнице, пожёванное ухо после сцены схватки с тигром. Поскольку страховые компании отказывались страховать авиатрюки — их пришлось снимать последними. Всё прошло без инцидентов, а актёр смог реализовать свою детскую мечту — лично постоять на крыле летящего самолёта.
Награды:
1978: Премия «Золотой экран», Германия-- -Качество: HDTVRip 720p
Формат: MKV
Видео кодек: H264
Аудио кодек: AC3
Видео: MPEG4 Video (H264), 1280x552, 29.97fps, 5000 Kbps
Аудио #1: Dolby AC3, 48000 Hz, 2ch, 192 kbps - Советский дубляж
Аудио #2: Dolby AC3, 48000 Hz, 2ch, 192 kbps - Многоголосый
Аудио #3: Dolby AC3, 48000 Hz, 2ch, 192 kbps - Французский
Cубтитры: Русские - VobSub
-Сэмпл-

MediaInfo:

General
Unique ID : 201707383895609748416444596158254492832 (0x97BF6DD731C72E6B8AD03FCF08432CA0)
Complete name : F:Torrent 21977.Чудовище.renta23.mkv
Format : Matroska
Format version : Version 4 / Version 2
File size : 3.76 GiB
Duration : 1h 36mn
Overall bit rate : 5 580 Kbps
Encoded date : UTC 2014-10-15 18:56:50
Writing application : mkvmerge v7.1.0 ('Good Love') 32bit built on Jul 27 2014 12:59:18
Writing library : libebml v1.3.0 + libmatroska v1.4.1
DURATION : 01:36:27.936000000
NUMBER_OF_FRAMES : 180873
NUMBER_OF_BYTES : 138910464
_STATISTICS_WRITING_APP : mkvmerge v7.1.0 ('Good Love') 32bit built on Jul 27 2014 12:59:18
_STATISTICS_WRITING_DATE_UTC : 2014-10-15 18:56:50
_STATISTICS_TAGS : BPS DURATION NUMBER_OF_FRAMES NUMBER_OF_BYTES
Video
ID : 1
Format : AVC
Format/Info : Advanced Video Codec
Format profile : High@L4.1
Format settings, CABAC : Yes
Format settings, ReFrames : 7 frames
Codec ID : V_MPEG4/ISO/AVC
Bit rate : 5 000 Kbps
Width : 1 280 pixels
Height : 552 pixels
Display aspect ratio : 2.35:1
Frame rate mode : Variable
Original frame rate : 29.970 fps
Color space : YUV
Chroma subsampling : 4:2:0
Bit depth : 8 bits
Scan type : Progressive
Bits/(Pixel*Frame) : 0.236
Title : 1977 Чудовище / Rip by renta23
Writing library : x264 core 125 r2208 d9d2288
Encoding settings : cabac=1 / ref=8 / deblock=1:-1:-1 / analyse=0x3:0x133 / me=umh / subme=11 / psy=1 / psy_rd=1.15:0.25 / mixed_ref=1 / me_range=24 / chroma_me=1 / trellis=2 / 8x8dct=1 / cqm=0 / deadzone=21,11 / fast_pskip=0 / chroma_qp_offset=-4 / threads=12 / lookahead_threads=2 / sliced_threads=0 / nr=0 / decimate=1 / interlaced=0 / bluray_compat=0 / constrained_intra=0 / bframes=6 / b_pyramid=1 / b_adapt=2 / b_bias=0 / direct=3 / weightb=1 / open_gop=0 / weightp=2 / keyint=250 / keyint_min=25 / scenecut=40 / intra_refresh=0 / rc_lookahead=50 / rc=2pass / mbtree=1 / bitrate=5000 / ratetol=1.0 / qcomp=0.60 / qpmin=0 / qpmax=69 / qpstep=4 / cplxblur=20.0 / qblur=0.5 / ip_ratio=1.40 / aq=2:1.00
Language : French
Default : Yes
Forced : No
Audio #1
ID : 2
Format : AC-3
Format/Info : Audio Coding 3
Mode extension : CM (complete main)
Format settings, Endianness : Big
Codec ID : A_AC3
Duration : 1h 36mn
Bit rate mode : Constant
Bit rate : 192 Kbps
Channel(s) : 2 channels
Channel positions : Front: L R
Sampling rate : 48.0 KHz
Bit depth : 16 bits
Compression mode : Lossy
Stream size : 133 MiB (3%)
Title : Советский дубляж
Language : Russian
Default : No
Forced : No
Audio #2
ID : 3
Format : AC-3
Format/Info : Audio Coding 3
Mode extension : CM (complete main)
Format settings, Endianness : Big
Codec ID : A_AC3
Duration : 1h 36mn
Bit rate mode : Constant
Bit rate : 192 Kbps
Channel(s) : 2 channels
Channel positions : Front: L R
Sampling rate : 48.0 KHz
Bit depth : 16 bits
Compression mode : Lossy
Stream size : 133 MiB (3%)
Title : Многоголосый
Language : Russian
Default : Yes
Forced : No
Audio #3
ID : 4
Format : AC-3
Format/Info : Audio Coding 3
Mode extension : CM (complete main)
Format settings, Endianness : Big
Codec ID : A_AC3
Duration : 1h 36mn
Bit rate mode : Constant
Bit rate : 192 Kbps
Channel(s) : 2 channels
Channel positions : Front: L R
Sampling rate : 48.0 KHz
Bit depth : 16 bits
Compression mode : Lossy
Stream size : 133 MiB (3%)
Language : French
Default : No
Forced : No
Text
ID : 5
Format : VobSub
Muxing mode : zlib
Codec ID : S_VOBSUB
Codec ID/Info : The same subtitle format used on DVDs
Language : Russian
Default : Yes
Forced : No

Скриншоты:

-
[Торрент-статистика]
[Профиль]  [ЛС] 
Показать сообщения:    
Ответить на тему

Текущее время: Сегодня 15:01

Часовой пояс: GMT + 4



Вы не можете начинать темы
Вы не можете отвечать на сообщения
Вы не можете редактировать свои сообщения
Вы не можете удалять свои сообщения
Вы не можете голосовать в опросах
Вы не можете прикреплять файлы к сообщениям
Вы не можете скачивать файлы