Челюсти / Jaws (Стивен Спилберг / Steven Spielberg) [1975 г.] (Ужасы) [HDTVRip, 720p] AVO (Гаврилов, Живов) + original eng

Ответить на тему
 
Автор
Сообщение

anton966 ®

Пол:

Стаж: 8 лет 11 месяцев

Сообщений: 24

Репутация: 0 [+] [-]

Пост 20-Дек-2011 12:55

[Цитировать] 

Челюсти / JawsГод выпуска: 1975
Производство: США
Жанр: Ужасы
Продолжительность: 02:03:51
Перевод: Авторский (одноголосый, закадровый) Андрей Гаврилов, Юрий Живов
Оригинальная дорожка: Английская
Субтитры: отсутствуют
Режиссер: Стивен Спилберг / Steven Spielberg
В ролях: Рой Шайдер / Roy Scheider, Ричард Дрейфусс / Richard Dreyfuss, Роберт Шоу / Robert Shaw, Лоррэйн Гэри / Lorraine Gary, Мюррей Хэмилтон / Murray Hamilton, Тед Гроссмэн / Ted Grossman, Сьюзан Бэклайни / Susan Backlinie, Карл Готтлиб / Carl Gottlieb, Джонатан Филли / Jonathan Filley, Джеффри Крэймер / Jeffrey Kramer
Описание: Когда на экраны вышла экранизация бестселлера Питера Бенчли в постановке режиссера Стивена Спилберга, мир в одночасье изменился навсегда. Миллионы людей испугались по-настоящему, снова пошли на картину и посоветовали сходить всем своим знакомым. "Челюсти" стали первым фильмом, собравшим в прокате Америки магическую сумму в сто миллионов долларов.
Фильм великого Спилберга прошел проверку временем и выстоял, похоронив тысячи киноподделок на эту же тему. До сих пор при звуках, теперь уже ставшей классической, музыки Джона Уильямса у многих людей волосы встают дыбом, и всплывают из подсознания жуткие картины, созданные невероятно талантливым режиссером. Теперь пришло время и Вам отправиться в роковое путешествие на бескрайние просторы океана, где вместе с тремя героями этого фильма Вас ждет встреча с огромной и безжалостной белой смертью.

Доп. информация: MKV собран на основе скачанного с тру исходника, спасибо Nightmare564. Дорожка с переводом Гаврилова с "чистого голоса" заново сделана под релиз. За голос спасибо dunhill200!

Качество: HDTVRip
Формат: MKV
Стандарт разрешения: 720p
Видео кодек: H.26x
Аудио кодек: AC3
Видео: 1280x532p, 23.976 fps, 6457 kbps
Аудио#1: Russian (Гаврилов) Dolby Digital AC3 48000Hz 6ch 448Kbps
Аудио#2: Russian (Живов) Dolby Digital AC3 48000Hz 6ch 448Kbps
Аудио#3: English Dolby Digital AC3 48000Hz 6ch 384Kbps

Media Info

Общее
Уникальный идентификатор : 233004506083124796491593639711326321796 (0xAF4B09196DCED50F84100F921077BC84)
Полное имя : H:\Мои документы\Кино3\Jaws.HDTVRip.720p.x264.mkv
Формат : Matroska
Версия формата : Version 2
Размер файла : 6,77 Гбайт
Продолжительность : 2 ч. 4 м.
Общий поток : 7819 Кбит/сек
Дата кодирования : UTC 2011-09-13 02:07:01
Программа кодирования : mkvmerge v4.9.1 ('Ich will') сборка от Jul 11 2011 23:53:15
Библиотека кодирования : libebml v1.2.1 + libmatroska v1.1.1
Видео
Идентификатор : 1
Формат : AVC
Формат/Информация : Advanced Video Codec
Профиль формата : High@L5.1
Параметр CABAC формата : Да
Параметр ReFrames формата : 3 кадра
Режим смешивания : Header stripping
Идентификатор кодека : V_MPEG4/ISO/AVC
Продолжительность : 2 ч. 4 м.
Битрейт : 6547 Кбит/сек
Ширина : 1280 пикселей
Высота : 532 пикселя
Соотношение сторон : 2,40:1
Частота кадров : 23,976 кадра/сек
Цветовое пространство : YUV
Субдискретизация насыщенности : 4:2:0
Битовая глубина : 8 бит
Тип развёртки : Прогрессивная
Бит/(Пиксели*Кадры) : 0.401
Размер потока : 5,53 Гбайт (82%)
Библиотека кодирования : x264 core 59 r839M 27c3071
Настройки программы : cabac=1 / ref=3 / deblock=1:-2:-1 / analyse=0x3:0x113 / me=umh / subme=6 / me-prepass=0 / brdo=0 / mixed_ref=0 / me_range=12 / chroma_me=1 / trellis=1 / 8x8dct=1 / cqm=0 / deadzone=21,11 / chroma_qp_offset=0 / threads=3 / nr=0 / decimate=1 / mbaff=0 / fgo=0 / bframes=16 / b_pyramid=1 / b_adapt=1 / b_bias=0 / direct=3 / wpredb=1 / bime=0 / keyint=250 / keyint_min=25 / scenecut=40(pre) / rc=2pass / bitrate=6547 / ratetol=1.0 / rceq='blurCplx^(1-qComp)' / qcomp=1.00 / qpmin=10 / qpmax=51 / qpstep=4 / cplxblur=20.0 / qblur=0.5 / ip_ratio=1.40 / pb_ratio=1.30 / aq=2:1.00
Язык : English
Аудио #1
Идентификатор : 2
Формат : AC-3
Формат/Информация : Audio Coding 3
Расширение режима : CM (complete main)
Режим смешивания : Header stripping
Идентификатор кодека : A_AC3
Продолжительность : 2 ч. 4 м.
Вид битрейта : Постоянный
Битрейт : 448 Кбит/сек
Каналы : 6 каналов
Расположение каналов : Front: L C R, Side: L R, LFE
Частота : 48,0 КГц
Битовая глубина : 16 бит
Метод сжатия : С потерями
Размер потока : 397 Мбайт (6%)
Заголовок : Gavrilov
Язык : Russian
Аудио #2
Идентификатор : 3
Формат : AC-3
Формат/Информация : Audio Coding 3
Расширение режима : CM (complete main)
Режим смешивания : Header stripping
Идентификатор кодека : A_AC3
Продолжительность : 2 ч. 4 м.
Вид битрейта : Постоянный
Битрейт : 448 Кбит/сек
Каналы : 6 каналов
Расположение каналов : Front: L C R, Side: L R, LFE
Частота : 48,0 КГц
Битовая глубина : 16 бит
Метод сжатия : С потерями
Размер потока : 397 Мбайт (6%)
Заголовок : Zhivov
Язык : Russian
Аудио #3
Идентификатор : 4
Формат : AC-3
Формат/Информация : Audio Coding 3
Расширение режима : CM (complete main)
Режим смешивания : Header stripping
Идентификатор кодека : A_AC3
Продолжительность : 2 ч. 4 м.
Вид битрейта : Постоянный
Битрейт : 384 Кбит/сек
Каналы : 6 каналов
Расположение каналов : Front: L C R, Side: L R, LFE
Частота : 48,0 КГц
Битовая глубина : 16 бит
Метод сжатия : С потерями
Размер потока : 341 Мбайт (5%)
Заголовок : AC3 384 kbps
Язык : English

Скриншоты







[Торрент-статистика]
[Профиль]  [ЛС] 
Показать сообщения:    
Ответить на тему

Текущее время: Сегодня 04:10

Часовой пояс: GMT + 4



Вы не можете начинать темы
Вы не можете отвечать на сообщения
Вы не можете редактировать свои сообщения
Вы не можете удалять свои сообщения
Вы не можете голосовать в опросах
Вы не можете прикреплять файлы к сообщениям
Вы не можете скачивать файлы