Она с метлой, он в чёрной шляпе [1987 г., Музыкальная сказка, DVD5]

Ответить на тему
 
Автор
Сообщение

Dadhi ®

Стаж: 9 лет 2 месяца

Сообщений: 39

Репутация: 41 [+] [-]

Пост 29-Дек-2011 09:58

[Цитировать] 

Она с метлой, он в чёрной шляпе
Год выпуска: 1987
Страна: СССР
Жанр: Музыкальная сказка
Продолжительность: 66 мин
Режиссер: Виталий Макаров
В ролях: Мария Евстигнеева, Александр Фриш, Михаил Светин, Нина Русланова, Андрей Соколов, Михаил Кононов, Алеша Островский, Владимир Пресняков-мл.
Описание: Дети Бабы Яги и Кащея Бессмертного должны скоро пожениться. Однако накануне свадьбы девушка находит листок, который ветром принесло прямо со стола несостоявшегося писателя Афанасия Зябликова, и мчится на его квартиру. Очутившись в современном доме, юная красавица влюбляется в соседа горе-писателя - молодого врача Алексея, и легко добивается взаимности. А между тем в квартире литератора начинают происходить странные и непредсказуемые события…
Доп. информация: Дебют в кино Андрея Соколова, Марии Евстигнеевой и Владимира Преснякова-мл.
Точная копия диска, выпущенного "Гранд Рекордз" в 2006 г. Как и большинство дисков этого издателя с фильмами к/с им. Горького, данный DVD имеет статичную заставку, с которой запускается фильм. Меню отсутствует. Реставрации, разумеется, нет.
Тип релиза: DVD5
Контейнер: DVD Video
Видео кодек: MPEG2
Аудио кодек: AC3 (Dolby Digital)
Видео: Video: PAL 4:3 (720x576) VBR
Аудио: Russian (Dolby AC3, 2 ch)

MediaInfo

[
Полное имя : G:\фильмы\Ona c metloy\VIDEO_TS\VIDEO_TS.BUP
Формат : DVD Video
Профиль формата : Menu
Размер файла : 6,00 Кбайт
Режим общего битрейта : Переменный
Видео
Идентификатор : 224 (0xE0)
Формат : MPEG Video
Версия формата : Version 1
Вид битрейта : Переменный
Ширина : 720 пикселей
Высота : 480 пикселей
Соотношение сторон : 4:3
Частота кадров : 29,970 кадров/сек
Стандарт вещания : NTSC
Метод сжатия : С потерями
Общее
Полное имя : G:\фильмы\Ona c metloy\VIDEO_TS\VIDEO_TS.IFO
Формат : DVD Video
Профиль формата : Menu
Размер файла : 6,00 Кбайт
Режим общего битрейта : Переменный
Видео
Идентификатор : 224 (0xE0)
Формат : MPEG Video
Версия формата : Version 1
Вид битрейта : Переменный
Ширина : 720 пикселей
Высота : 480 пикселей
Соотношение сторон : 4:3
Частота кадров : 29,970 кадров/сек
Стандарт вещания : NTSC
Метод сжатия : С потерями
Общее
Полное имя : G:\фильмы\Ona c metloy\VIDEO_TS\VTS_01_0.BUP
Формат : DVD Video
Профиль формата : Program
Размер файла : 48,0 Кбайт
Продолжительность : 1 ч. 5 м.
Режим общего битрейта : Переменный
Общий поток : 99 бит/сек
Видео
Идентификатор : 224 (0xE0)
Формат : MPEG Video
Версия формата : Version 2
Продолжительность : 1 ч. 5 м.
Вид битрейта : Переменный
Ширина : 720 пикселей
Высота : 576 пикселей
Соотношение сторон : 4:3
Частота кадров : 25,000 кадров/сек
Стандарт вещания : PAL
Метод сжатия : С потерями
Аудио
Идентификатор : 128 (0x80)
Формат : AC-3
Формат/Информация : Audio Coding 3
Продолжительность : 1 ч. 5 м.
Каналы : 2 канала
Частота : 48,0 КГц
Метод сжатия : С потерями
Язык : English
Меню #1
Продолжительность : 6 с. 40 мс.
00:00:00.000 : Chapter 1
List (Audio) : 0
Меню #2
Продолжительность : 1 ч. 5 м.
00:00:00.000 : Chapter 1
00:00:10.000 : Chapter 2
00:00:19.760 : Chapter 3
00:00:29.520 : Chapter 4
00:00:39.280 : Chapter 5
00:00:49.280 : Chapter 6
00:00:59.280 : Chapter 7
List (Audio) : 0
Меню #3
Общее
Полное имя : G:\фильмы\Ona c metloy\VIDEO_TS\VTS_01_0.IFO
Формат : DVD Video
Профиль формата : Program
Размер файла : 48,0 Кбайт
Продолжительность : 1 ч. 5 м.
Режим общего битрейта : Переменный
Общий поток : 99 бит/сек
Видео
Идентификатор : 224 (0xE0)
Формат : MPEG Video
Версия формата : Version 2
Продолжительность : 1 ч. 5 м.
Вид битрейта : Переменный
Ширина : 720 пикселей
Высота : 576 пикселей
Соотношение сторон : 4:3
Частота кадров : 25,000 кадров/сек
Стандарт вещания : PAL
Метод сжатия : С потерями
Аудио
Идентификатор : 128 (0x80)
Формат : AC-3
Формат/Информация : Audio Coding 3
Продолжительность : 1 ч. 5 м.
Каналы : 2 канала
Частота : 48,0 КГц
Метод сжатия : С потерями
Язык : English
Меню #1
Продолжительность : 6 с. 40 мс.
00:00:00.000 : Chapter 1
List (Audio) : 0
Меню #2
Продолжительность : 1 ч. 5 м.
00:00:00.000 : Chapter 1
00:00:10.000 : Chapter 2
00:00:19.760 : Chapter 3
00:00:29.520 : Chapter 4
00:00:39.280 : Chapter 5
00:00:49.280 : Chapter 6
00:00:59.280 : Chapter 7
List (Audio) : 0
Меню #3
Общее
Полное имя : G:\фильмы\Ona c metloy\VIDEO_TS\VTS_01_0.VOB
Формат : MPEG-PS
Размер файла : 110 Кбайт
Продолжительность : 40 мс.
Общий поток : 22,5 Мбит/сек
Видео
Идентификатор : 224 (0xE0)
Формат : MPEG Video
Версия формата : Version 2
Профиль формата : Main@Main
Параметр BVOP формата : Нет
Параметр матрицы формата : Выборочная
Продолжительность : 40 мс.
Максимальный битрейт : 8000 Кбит/сек
Ширина : 720 пикселей
Высота : 576 пикселей
Соотношение сторон : 4:3
Частота кадров : 25,000 кадров/сек
Стандарт вещания : PAL
Цветовое пространство : YUV
Субдискретизация насыщенности : 4:2:0
Битовая глубина : 8 бит
Тип развёртки : Прогрессивная
Порядок развёртки : Верхнее поле первое
Метод сжатия : С потерями
Текст
Идентификатор : 189 (0xBD)-32 (0x20)
Формат : RLE
Формат/Информация : Run-length encoding
Режим смешивания : DVD-Video
Меню
Общее
Полное имя : G:\фильмы\Ona c metloy\VIDEO_TS\VTS_01_1.VOB
Формат : MPEG-PS
Размер файла : 1024 Мбайт
Продолжительность : 17 м.
Режим общего битрейта : Переменный
Общий поток : 8124 Кбит/сек
Видео
Идентификатор : 224 (0xE0)
Формат : MPEG Video
Версия формата : Version 2
Профиль формата : Main@Main
Параметр BVOP формата : Да
Параметр матрицы формата : Выборочная
Продолжительность : 17 м.
Вид битрейта : Переменный
Битрейт : 7770 Кбит/сек
Максимальный битрейт : 8000 Кбит/сек
Ширина : 720 пикселей
Высота : 576 пикселей
Соотношение сторон : 4:3
Частота кадров : 25,000 кадров/сек
Стандарт вещания : PAL
Цветовое пространство : YUV
Субдискретизация насыщенности : 4:2:0
Битовая глубина : 8 бит
Тип развёртки : Чересстрочная
Порядок развёртки : Верхнее поле первое
Метод сжатия : С потерями
Бит/(Пиксели*Кадры) : 0.749
Размер потока : 979 Мбайт (96%)
Аудио
Идентификатор : 189 (0xBD)-128 (0x80)
Формат : AC-3
Формат/Информация : Audio Coding 3
Расширение режима : CM (complete main)
Режим смешивания : DVD-Video
Продолжительность : 17 м.
Вид битрейта : Постоянный
Битрейт : 192 Кбит/сек
Каналы : 2 канала
Расположение каналов : Front: L R
Частота : 48,0 КГц
Битовая глубина : 16 бит
Метод сжатия : С потерями
Размер потока : 24,2 Мбайт (2%)
Меню
Общее
Полное имя : G:\фильмы\Ona c metloy\VIDEO_TS\VTS_01_2.VOB
Формат : MPEG-PS
Размер файла : 1024 Мбайт
Продолжительность : 17 м.
Режим общего битрейта : Переменный
Общий поток : 8124 Кбит/сек
Видео
Идентификатор : 224 (0xE0)
Формат : MPEG Video
Версия формата : Version 2
Профиль формата : Main@Main
Параметр BVOP формата : Да
Параметр матрицы формата : Выборочная
Параметр GOP формата : M=3, N=15
Продолжительность : 17 м.
Вид битрейта : Переменный
Битрейт : 7770 Кбит/сек
Максимальный битрейт : 9200 Кбит/сек
Ширина : 720 пикселей
Высота : 576 пикселей
Соотношение сторон : 4:3
Частота кадров : 25,000 кадров/сек
Стандарт вещания : PAL
Цветовое пространство : YUV
Субдискретизация насыщенности : 4:2:0
Битовая глубина : 8 бит
Тип развёртки : Чересстрочная
Порядок развёртки : Верхнее поле первое
Метод сжатия : С потерями
Бит/(Пиксели*Кадры) : 0.749
Размер потока : 979 Мбайт (96%)
Аудио
Идентификатор : 189 (0xBD)-128 (0x80)
Формат : AC-3
Формат/Информация : Audio Coding 3
Расширение режима : CM (complete main)
Режим смешивания : DVD-Video
Продолжительность : 17 м.
Вид битрейта : Постоянный
Битрейт : 192 Кбит/сек
Каналы : 2 канала
Расположение каналов : Front: L R
Частота : 48,0 КГц
Битовая глубина : 16 бит
Метод сжатия : С потерями
Задержка видео : -184 мс.
Размер потока : 24,2 Мбайт (2%)
Меню
Общее
Полное имя : G:\фильмы\Ona c metloy\VIDEO_TS\VTS_01_3.VOB
Формат : MPEG-PS
Размер файла : 1023 Мбайт
Продолжительность : 17 м.
Режим общего битрейта : Переменный
Общий поток : 8124 Кбит/сек
Видео
Идентификатор : 224 (0xE0)
Формат : MPEG Video
Версия формата : Version 2
Профиль формата : Main@Main
Параметр BVOP формата : Да
Параметр матрицы формата : Выборочная
Параметр GOP формата : M=3, N=15
Продолжительность : 17 м.
Вид битрейта : Переменный
Битрейт : 7770 Кбит/сек
Максимальный битрейт : 9200 Кбит/сек
Ширина : 720 пикселей
Высота : 576 пикселей
Соотношение сторон : 4:3
Частота кадров : 25,000 кадров/сек
Стандарт вещания : PAL
Цветовое пространство : YUV
Субдискретизация насыщенности : 4:2:0
Битовая глубина : 8 бит
Тип развёртки : Чересстрочная
Порядок развёртки : Верхнее поле первое
Метод сжатия : С потерями
Бит/(Пиксели*Кадры) : 0.749
Размер потока : 979 Мбайт (96%)
Аудио
Идентификатор : 189 (0xBD)-128 (0x80)
Формат : AC-3
Формат/Информация : Audio Coding 3
Расширение режима : CM (complete main)
Режим смешивания : DVD-Video
Продолжительность : 17 м.
Вид битрейта : Постоянный
Битрейт : 192 Кбит/сек
Каналы : 2 канала
Расположение каналов : Front: L R
Частота : 48,0 КГц
Битовая глубина : 16 бит
Метод сжатия : С потерями
Задержка видео : -184 мс.
Размер потока : 24,2 Мбайт (2%)
Меню
Общее
Полное имя : G:\фильмы\Ona c metloy\VIDEO_TS\VTS_01_4.VOB
Формат : MPEG-PS
Размер файла : 737 Мбайт
Продолжительность : 12 м.
Режим общего битрейта : Переменный
Общий поток : 8122 Кбит/сек
Видео
Идентификатор : 224 (0xE0)
Формат : MPEG Video
Версия формата : Version 2
Профиль формата : Main@Main
Параметр BVOP формата : Да
Параметр матрицы формата : Выборочная
Параметр GOP формата : M=3, N=15
Продолжительность : 12 м.
Вид битрейта : Переменный
Битрейт : 7769 Кбит/сек
Максимальный битрейт : 9200 Кбит/сек
Ширина : 720 пикселей
Высота : 576 пикселей
Соотношение сторон : 4:3
Частота кадров : 25,000 кадров/сек
Стандарт вещания : PAL
Цветовое пространство : YUV
Субдискретизация насыщенности : 4:2:0
Битовая глубина : 8 бит
Тип развёртки : Чересстрочная
Порядок развёртки : Верхнее поле первое
Метод сжатия : С потерями
Бит/(Пиксели*Кадры) : 0.749
Размер потока : 705 Мбайт (96%)
Аудио
Идентификатор : 189 (0xBD)-128 (0x80)
Формат : AC-3
Формат/Информация : Audio Coding 3
Расширение режима : CM (complete main)
Режим смешивания : DVD-Video
Продолжительность : 12 м.
Вид битрейта : Постоянный
Битрейт : 192 Кбит/сек
Каналы : 2 канала
Расположение каналов : Front: L R
Частота : 48,0 КГц
Битовая глубина : 16 бит
Метод сжатия : С потерями
Задержка видео : -200 мс.
Размер потока : 17,4 Мбайт (2%)


Последний раз редактировалось: Dadhi (2012-01-24 12:45), всего редактировалось 2 раз(а)
[Торрент-статистика]
[Профиль]  [ЛС] 

Ратибор

Стаж: 9 лет 3 месяца

Сообщений: 192

Репутация: 10 [+] [-]

Пост 30-Дек-2011 04:10 (спустя 18 часов)

[Цитировать] 

Поменяйте, пожалуйста, скриншоты на формат .png

_________________

[Торрент-статистика]
[Профиль]  [ЛС] 

NeliyZar

Пол:

Стаж: 9 лет 4 месяца

Сообщений: 3280

Репутация: 689 [+] [-]

Откуда: Донбасс

Пост 30-Дек-2011 23:43 (спустя 19 часов)

[Цитировать] 

Ратибор, думаю надо подыскать другой раздел все таки для этой раздачи....

_________________
Спорить с женщиной не так тяжело, когда понимаешь, что это бесполезно... (Михаил Мамчич)
Исправили раздачу? Отпишитесь модератору в ЛС с ссылкой на релиз.
[Торрент-статистика]
[Профиль]  [ЛС] 

Dadhi ®

Стаж: 9 лет 2 месяца

Сообщений: 39

Репутация: 41 [+] [-]

Пост 31-Дек-2011 01:47 (спустя 2 часа 4 минуты)

[Цитировать] 

Уехал в отпуск, .. раздачи вознобовлю через 11 дней. .. тогда и скины перезалью.
ВСЕХ С НОВЫМ ГОДОМ!! Желаю всего того чего не купить за деньги!
[Торрент-статистика]
[Профиль]  [ЛС] 

Пост 21-Янв-2012 02:44 (спустя 21 день)

Топик был перенесен из форума Развлекательные телепередачи и шоу, приколы и юмор в форум Кино СССР (DVD Video)

diim
 
Показать сообщения:    
Ответить на тему

Текущее время: Сегодня 15:31

Часовой пояс: GMT + 4



Вы не можете начинать темы
Вы не можете отвечать на сообщения
Вы не можете редактировать свои сообщения
Вы не можете удалять свои сообщения
Вы не можете голосовать в опросах
Вы не можете прикреплять файлы к сообщениям
Вы не можете скачивать файлы