Мастер тай-цзи / Man of Tai Chi (Киану Ривз / Keanu Reeves) [2013 г., боевик, BDRip 720p] [BaibaKo] + Sub (eng)

Ответить на тему
 
Автор
Сообщение

TiZAr ®

Пол:

Стаж: 4 года 3 месяца

Сообщений: 837

Репутация: 1160 [+] [-]

Откуда: Россия

Пост 28-Ноя-2013 00:42

[Цитировать] 

Мастер тай-цзи / Man of Tai Chi- Год выпуска: 2013
Страна: США, Китай, Гонконг
Жанр: боевик
Продолжительность: 01:45:15
Перевод: Любительский (многоголосый закадровый) [BaibaKo]
Режиссер: Киану Ривз / Keanu Reeves
Производство: China Film Group Corporation, Company Films, Dalian Wanda Group, Village Roadshow Pictures- -В ролях:
Киану Ривз, Тайгер Ху Чен, Ико Ювайс, Карен Мок, Саймон Ям, Сильвио Шимач, Цин Е, Джереми Меринас, Хелен Леклерк, Ю Сон Чжун, Стивен Дасс, Сэм Ли и др.
Описание:
Пекин. Амбициозный юноша Чэнь Линь-Ху по кличке «Тигр» подрабатывает скромным курьером, но после работы он превращается в молодую звезду боевых искусств, постепенно оттачивая свои навыки, следуя традициям Тайцзи Лин Кун. Обучившись размеренным и мирным движениям из Тайцзи, он приспособил их для бойцовских соревнований.
Донака Марк, скрываясь от гонконгской полиции, попадает в другой столичный мегаполис, где царит неразбериха и хаос, и открывает там подпольный бойцовский клуб, в котором реальные деньги можно заработать, побеждая противников в поединках без правил, транслируемых в прямом эфире богатым клиентам.
Подыскивая новую «звезду», Донака пытается приманить Тигра обещанием лёгкого заработка. Вхождение в этот мир выявляет самую тёмную сторону Чэнь Линь-Ху, но ему необходимы наличные. Его навыки помогают ему на ринге, но сможет ли он, сражаясь, сохранить в себе чистоту и добропорядочность?
Доп. информация: сохранены оригинальные чаптеры, как на Blu-Ray.
Автор рипа:

Тип релиза: BDRip 720p | Сэмпл
Контейнер: MKV
Видео кодек: AVC
Аудио кодек: AC3 (Dolby Digital)
Видео: AVC, 1280x532 (2.40:1), 23.976 fps, 3 589 Kbps (0.220 bit/pixel)
Аудио: AC-3, 48.0 KHz, 6 ch, 384 Kbps, CBR (Russian)
Субтитры: English

Доп. Информация

Сценарий: Майкл Дж. Куни / Michael G. Cooney
Продюсер: Лимор Сиван / Lemore Syvan, Ноа Вейнцвейг / Noah Weinzweig, Чжан Дасин / Zhang Daxing, Ман-Ю Ли / Man-Yiu Lee, Шэрон Миллер / Sharon Miller
Оператор: Эллиот Дэвис / Elliot Davis
Композитор: Квонг Уинг Чан / Kwong Wing Chan

Бюджет: $25 000 000
Сборы в мире: $4 280 000
Мировая премьера: 5 июля 2013

MI

Код:
General
Unique ID                                : 298051184470927260250592507324934078142 (0xE03A91F2F1610F95F9BAB6F556AB3EBE)
Complete name                            : E:\downloads\Man of Tai Chi.2013.720p.x264-LEONARDO_[scarabey.org].mkv
Format                                   : Matroska
Format version                           : Version 2
File size                                : 2.92 GiB
Duration                                 : 1h 45mn
Overall bit rate                         : 3 975 Kbps
Movie name                               : -=LEONARDO=-
Encoded date                             : UTC 2013-11-25 09:26:57
Writing application                      : mkvmerge v5.0.1 ('Es ist Sommer') built on Oct 23 2011 00:46:40
Writing library                          : libebml v1.2.2 + libmatroska v1.3.0
Video
ID                                       : 1
Format                                   : AVC
Format/Info                              : Advanced Video Codec
Format profile                           : High@L4.1
Format settings, CABAC                   : Yes
Format settings, ReFrames                : 9 frames
Codec ID                                 : V_MPEG4/ISO/AVC
Duration                                 : 1h 45mn
Bit rate                                 : 3 589 Kbps
Width                                    : 1 280 pixels
Height                                   : 532 pixels
Display aspect ratio                     : 2.40:1
Frame rate mode                          : Constant
Frame rate                               : 23.976 fps
Color space                              : YUV
Chroma subsampling                       : 4:2:0
Bit depth                                : 8 bits
Scan type                                : Progressive
Bits/(Pixel*Frame)                       : 0.220
Stream size                              : 2.58 GiB (88%)
Writing library                          : x264 core 125 r2208 d9d2288
Encoding settings                        : cabac=1 / ref=9 / deblock=1:-3:-3 / analyse=0x3:0x133 / me=umh / subme=11 / psy=1 / psy_rd=1.00:0.15 / mixed_ref=1 / me_range=32 / chroma_me=1 / trellis=2 / 8x8dct=1 / cqm=0 / deadzone=21,11 / fast_pskip=0 / chroma_qp_offset=-3 / threads=12 / lookahead_threads=2 / sliced_threads=0 / nr=0 / decimate=1 / interlaced=0 / bluray_compat=0 / constrained_intra=0 / bframes=8 / b_pyramid=2 / b_adapt=2 / b_bias=0 / direct=3 / weightb=1 / open_gop=0 / weightp=2 / keyint=250 / keyint_min=23 / scenecut=40 / intra_refresh=0 / rc=2pass / mbtree=0 / bitrate=3589 / ratetol=1.0 / qcomp=0.60 / qpmin=0 / qpmax=69 / qpstep=4 / cplxblur=20.0 / qblur=0.5 / ip_ratio=1.20 / pb_ratio=1.15 / aq=2:1.00
Language                                 : English
Default                                  : Yes
Forced                                   : No
Audio
ID                                       : 2
Format                                   : AC-3
Format/Info                              : Audio Coding 3
Mode extension                           : CM (complete main)
Format settings, Endianness              : Big
Codec ID                                 : A_AC3
Duration                                 : 1h 45mn
Bit rate mode                            : Constant
Bit rate                                 : 384 Kbps
Channel count                            : 6 channels
Channel positions                        : Front: L C R, Side: L R, LFE
Sampling rate                            : 48.0 KHz
Bit depth                                : 16 bits
Compression mode                         : Lossy
Stream size                              : 289 MiB (10%)
Title                                    : MVO
Language                                 : Russian
Default                                  : Yes
Forced                                   : Yes
Text #1
ID                                       : 3
Format                                   : UTF-8
Codec ID                                 : S_TEXT/UTF8
Codec ID/Info                            : UTF-8 Plain Text
Title                                    : Full
Language                                 : English
Default                                  : No
Forced                                   : No
Text #2
ID                                       : 4
Format                                   : UTF-8
Codec ID                                 : S_TEXT/UTF8
Codec ID/Info                            : UTF-8 Plain Text
Title                                    : SDH-Colored
Language                                 : English
Default                                  : No
Forced                                   : No
Menu
00:00:00.000                             : en:(01)00:00:00:000
00:04:07.664                             : en:(02)00:04:07:664
00:09:17.181                             : en:(03)00:09:17:181
00:15:33.390                             : en:(04)00:15:33:390
00:20:25.557                             : en:(05)00:20:25:557
00:27:11.296                             : en:(06)00:27:11:296
00:33:31.175                             : en:(07)00:33:31:175
00:39:35.956                             : en:(08)00:39:35:956
00:46:23.989                             : en:(09)00:46:23:989
00:54:39.985                             : en:(10)00:54:39:985
01:02:01.342                             : en:(11)01:02:01:342
01:10:25.221                             : en:(12)01:10:25:221
01:16:37.926                             : en:(13)01:16:37:926
01:20:23.652                             : en:(14)01:20:23:652
01:27:12.477                             : en:(15)01:27:12:477
01:37:58.247                             : en:(16)01:37:58:247
01:45:14.516                             : en:(17)01:45:14:516

Скриншоты


_________________
Не стоит обращать внимания на отсутствие сидов на моих раздачах. Все мои релизы мультитрекерные - нет сидов, включите DHT.
За релизами в HD качестве обращайтесь в личку, либо отписывайтесь в теме.
[Торрент-статистика]
[Профиль]  [ЛС] 
Показать сообщения:    
Ответить на тему

Текущее время: Сегодня 16:04

Часовой пояс: GMT + 4



Вы не можете начинать темы
Вы не можете отвечать на сообщения
Вы не можете редактировать свои сообщения
Вы не можете удалять свои сообщения
Вы не можете голосовать в опросах
Вы не можете прикреплять файлы к сообщениям
Вы не можете скачивать файлы