Магия Победы / Magic to Win (Уилсон Ип / Wilson Yip) [2011 г., Фентези, BDRip 1080] DVO GREEN TEA Sub Eng Chin

Ответить на тему
 
Автор
Сообщение

Sayar07 ®

Пол:

Стаж: 5 лет 9 месяцев

Сообщений: 2

Репутация: 0 [+] [-]

Пост 24-Фев-2012 18:24

[Цитировать] 

Магия Победы / Magic to Win
Страна: Гонконг, Китай
Жанр: Фентези
Год выпуска: 2011
Продолжительность: 01:40:03
Перевод: Любительский (двухголосый закадровый) Ustas Alexis, pandora2177
Cубтитры: Eng Cin
Перевод на русский язык: pandora2177, Xani, Sibiande, Алекс Викке, Feride1292, SSMEDVEDSS
Оригинальная аудиодорожка: Chinese
Режиссер: Уилсон Ип / Wilson Yip
В ролях: Чун Ву, Минг Вонг, Джеки Ву, Луис Ку.
Описание: Мир состоит из пяти элементов: золота, дерева, воды, огня и земли. Основой волшебного мира в фильме является «магия пяти элементов». Университетский профессор Хун Сум-Квай — маг воды. Он пользуется магией каждый день, но о его способностях не знает никто. Однажды по случайному стечению обстоятельств его сила передаётся студентке Мейси, и у обычной девушки начинается жизнь, полная приключений. В волшебном мире всегда царило спокойствие, но Бут Е-Мо, маг огня, находит способ путешествовать во времени. Он собирается изменить важное событие из своего прошлого и завладеть силой пяти элементов. Бут просит помощи у своего приятеля Лин Фуна, мага земли, но тот не соглашается, ведь изменение прошлого может вызвать огромные проблемы. Между двумя друзьями разгорается ссора. В попытке остановить Е-Мо, Лин сообщает остальным об опасном плане мага огня, но тот на него нападает, и в библиотеке начинается бой с использованием магии. Тяжелораненый Лин становится невидимкой и теряет память.
Сэмпл
IMDB
КиноПоиск
Источник/Качество: BDRip 1080p
Формат: MKV
Видео кодек: H.264
Аудио кодек:DTS, AC3
Субтитры:VobSub
Видео: MPEG-4 AVC, 1820x816, 10,6 Mбит/сек, 24 fps
Аудио 1: Russian : 48 kHz, AC3 3/2 (L,C,R,l,r) + LFE ch, ~384 kbps.
Аудио 2: Chinese : 48 kHz, DTS 3/2 (L,C,R,l,r) + LFE ch 1536 kbps Cantonese
Аудио 3: Chinese : 48 kHz, DTS 3/2 (L,C,R,l,r) + LFE ch 1536 kbps Mandarin

MediaInfo

Общее
Уникальный идентификатор : 183058494518788252786230826390418514881 (0x89B7C89B1C9E5376869EC72CA83663C1)
Полное имя : D:\Закачки\Magic_to_Win_2011_BDRip_1080p.mkv
Формат : Matroska
Версия формата : Version 2
Размер файла : 9,78 Гбайт
Продолжительность : 1 ч. 40 м.
Общий поток : 14,0 Мбит/сек
Название фильма : Magic_to_Win_BDRip_1080p
Дата кодирования : UTC 2012-02-20 22:32:16
Программа кодирования : mkvmerge v5.0.1 ('Es ist Sommer') built on Oct 9 2011 11:55:43
Библиотека кодирования : libebml v1.2.2 + libmatroska v1.3.0
Видео
Идентификатор : 1
Формат : AVC
Формат/Информация : Advanced Video Codec
Профиль формата : High@L4.1
Параметр CABAC формата : Да
Параметр ReFrames формата : 5 кадров
Идентификатор кодека : V_MPEG4/ISO/AVC
Продолжительность : 1 ч. 40 м.
Битрейт : 10,6 Мбит/сек
Ширина : 1920 пикселей
Высота : 816 пикселей
Соотношение сторон : 2,35:1
Частота кадров : 24,000 кадра/сек
Цветовое пространство : YUV
Субдискретизация насыщенности : 4:2:0
Битовая глубина : 8 бит
Тип развёртки : Прогрессивная
Бит/(Пиксели*Кадры) : 0.281
Размер потока : 7,21 Гбайт (74%)
Заголовок : Magic.to.Win.2011
Библиотека кодирования : x264 core 119 r2106+636 fcb18f7
Настройки программы : cabac=1 / ref=5 / deblock=1:-3:-3 / analyse=0x3:0x113 / me=umh / subme=10 / psy=1 / fade_compensate=0.00 / psy_rd=1.05:0.10 / mixed_ref=1 / me_range=48 / chroma_me=1 / trellis=2 / 8x8dct=1 / cqm=2 / deadzone=21,11 / fast_pskip=0 / chroma_qp_offset=-2 / threads=12 / sliced_threads=0 / nr=0 / decimate=1 / interlaced=0 / bluray_compat=0 / constrained_intra=0 / fgo=0 / bframes=6 / b_pyramid=2 / b_adapt=2 / b_bias=0 / direct=3 / weightb=1 / open_gop=0 / weightp=2 / keyint=250 / keyint_min=24 / scenecut=40 / intra_refresh=0 / rc_lookahead=60 / rc=2pass / mbtree=1 / bitrate=10579 / ratetol=2.0 / qcomp=0.70 / qpmin=1 / qpmax=63 / qpstep=4 / cplxblur=20.0 / qblur=0.5 / vbv_maxrate=40000 / vbv_bufsize=30000 / nal_hrd=none / ip_ratio=1.40 / aq=2:1.00
Язык : Chinese
Default : Да
Forced : Нет
Аудио #1
Идентификатор : 2
Формат : AC-3
Формат/Информация : Audio Coding 3
Расширение режима : CM (complete main)
Идентификатор кодека : A_AC3
Продолжительность : 1 ч. 40 м.
Вид битрейта : Постоянный
Битрейт : 384 Кбит/сек
Каналы : 6 каналов
Расположение каналов : Front: L C R, Side: L R, LFE
Частота : 48,0 КГц
Битовая глубина : 16 бит
Метод сжатия : С потерями
Размер потока : 275 Мбайт (3%)
Заголовок : Green tea AC3 core 5.1 384 Kbps.
Язык : Russian
Default : Да
Forced : Нет
Аудио #2
Идентификатор : 3
Формат : DTS
Формат/Информация : Digital Theater Systems
Идентификатор кодека : A_DTS
Продолжительность : 1 ч. 40 м.
Вид битрейта : Постоянный
Битрейт : 1510 Кбит/сек
Каналы : 6 каналов
Расположение каналов : Front: L C R, Side: L R, LFE
Частота : 48,0 КГц
Битовая глубина : 24 бит
Метод сжатия : С потерями
Размер потока : 1,06 Гбайт (11%)
Заголовок : Cantonese DTS-HDMA core 5.1 1509Kbps
Язык : Chinese
Default : Нет
Forced : Нет
Аудио #3
Идентификатор : 4
Формат : DTS
Формат/Информация : Digital Theater Systems
Идентификатор кодека : A_DTS
Продолжительность : 1 ч. 40 м.
Вид битрейта : Постоянный
Битрейт : 1510 Кбит/сек
Каналы : 6 каналов
Расположение каналов : Front: L C R, Side: L R, LFE
Частота : 48,0 КГц
Битовая глубина : 24 бит
Метод сжатия : С потерями
Размер потока : 1,06 Гбайт (11%)
Заголовок : Mandarin DTS-HDMA core 5.1 1509Kbps
Язык : Chinese
Default : Нет
Forced : Нет
Текст #1
Идентификатор : 5
Формат : VobSub
Режим смешивания : zlib
Идентификатор кодека : S_VOBSUB
Идентификатор кодека/Информация : The same subtitle format used on DVDs
Язык : English
Default : Нет
Forced : Нет
Текст #2
Идентификатор : 6
Формат : VobSub
Режим смешивания : zlib
Идентификатор кодека : S_VOBSUB
Идентификатор кодека/Информация : The same subtitle format used on DVDs
Язык : Chinese
Default : Нет
Forced : Нет

Скриншот c названием фильма

Скриншоты

[Торрент-статистика]
[Профиль]  [ЛС] 
Показать сообщения:    
Ответить на тему

Текущее время: Сегодня 16:02

Часовой пояс: GMT + 4



Вы не можете начинать темы
Вы не можете отвечать на сообщения
Вы не можете редактировать свои сообщения
Вы не можете удалять свои сообщения
Вы не можете голосовать в опросах
Вы не можете прикреплять файлы к сообщениям
Вы не можете скачивать файлы