Частные уроки / Fancy Walk (Ко Гён А / Ko Kyeong Ah)[2013 г., драма, мелодрама, эротика, HDRip 720p] MVO STEPonee

Ответить на тему
 
Автор
Сообщение

awk05 ®

Пол:

Стаж: 5 лет 5 месяцев

Сообщений: 1352

Репутация: 275 [+] [-]

Откуда: Западная Украина Ривне

Пост 26-Июл-2014 16:20

[Цитировать] 

-- Частные уроки / Fancy Walk-- Страна: Корея Южная
Год выхода: 2013
Жанр: драма, мелодрама, эротика
Продолжительность: 01:24:01
Перевод: Любительское (многоголосое) - STEPonee
Субтитры: нет--Режиссер: Ко Гён А / Ko Kyeong Ah --
В ролях: Ким Сон Ён - Хи Су, Бён Чжун Сок - Сын Хо, О Чо Хи - подруга Сын Хо, Нам Тхе Бу - Бом Су, Мин Чжи Хёк - Чжун Хо--О фильме: Молодая и красивая пользующаяся популярностью певица и создатель песен Хи Су в общем, довольна своей жизнью: хиты вроде сочиняются, продюсер вроде находит исполнителей, что-то выпускает, и любовники у неё вроде ничего. Но именно что "вроде". Она чувствует, что жизнь становится пресной, перестаёт доставлять удовольствие, да и творческий запал, похоже начинает затихать - Хи Су всё чаще обвиняют в плагиате. Она уверена, что утрата вдохновения впрямую связана с её одиночеством. В один прекрасный момент в лифте она сталкивается с 19-летним парнем студентом художественной школы, будущим художником и замечает его восхищённые взоры по отношению к себе. Хи Су решает, что это её шанс опять обрести вдохновение. Она даёт парню уроки любви под предлогом уроков музыки и они влюбляются друг в друга. Но ситуация усложняется, когда возвращается Джун Хо, учитель музыки Хи Су, с которым у неё когда-то был роман--Качество видео: HDRip 720p
Формат видео: MKV
Видео кодек: AVC (Main@L4.1)
Аудио кодек: AC-3
Видео: AVC, 1280x720 (16:9), 23.976 fps, 4 009 Kbps (0.181 bit/pixel)
Аудио: AC-3, 48.0 KHz, 2 ch, 256 Kbps, CBR, 16 бит [RUS]
--

Кадры из фильма

Тех. данные (MI)

Общее
Уникальный идентификатор : 239644612891029167877021831448364236307 (0xB449DFA41ADAB30F9C56A51E8DA2BE13)
Полное имя : E:\тест\Fancy Walk (2013) HDRip 720p.mkv
Формат : Matroska
Версия формата : Version 4 / Version 2
Размер файла : 2,55 Гбайт
Продолжительность : 1 ч. 23 м.
Общий поток : 4352 Кбит/сек
Дата кодирования : UTC 2014-07-25 12:34:46
Программа кодирования : mkvmerge v6.9.1 ('Blue Panther') 64bit built on Apr 18 2014 18:23:38
Библиотека кодирования : libebml v1.3.0 + libmatroska v1.4.1
Видео
Идентификатор : 1
Формат : AVC
Формат/Информация : Advanced Video Codec
Профиль формата : Main@L4.1
Параметр CABAC формата : Да
Параметр ReFrames формата : 8 кадров
Идентификатор кодека : V_MPEG4/ISO/AVC
Продолжительность : 1 ч. 23 м.
Битрейт : 4009 Кбит/сек
Ширина : 1280 пикселей
Высота : 720 пикселей
Соотношение сторон : 16:9
Режим частоты кадров : Постоянный
Частота кадров : 23,976 кадра/сек
Цветовое пространство : YUV
Субдискретизация насыщенности : 4:2:0
Битовая глубина : 8 бит
Тип развёртки : Прогрессивная
Бит/(Пиксели*Кадры) : 0.181
Размер потока : 2,35 Гбайт (92%)
Язык : English
Default : Да
Forced : Да
Аудио
Идентификатор : 2
Формат : AC-3
Формат/Информация : Audio Coding 3
Расширение режима : CM (complete main)
Параметр Endianness формата : Big
Идентификатор кодека : A_AC3
Продолжительность : 1 ч. 23 м.
Вид битрейта : Постоянный
Битрейт : 256 Кбит/сек
Каналы : 2 канала
Расположение каналов : Front: L R
Частота : 48,0 КГц
Битовая глубина : 16 бит
Метод сжатия : С потерями
Размер потока : 153 Мбайт (6%)
Язык : Russian
Default : Да
Forced : Нет
ВНИМАНИЕ!!! Запрещен к просмотру, лицам младше 18 лет!

_________________
[Торрент-статистика]
[Профиль]  [ЛС] 
Показать сообщения:    
Ответить на тему

Текущее время: Сегодня 16:09

Часовой пояс: GMT + 4



Вы не можете начинать темы
Вы не можете отвечать на сообщения
Вы не можете редактировать свои сообщения
Вы не можете удалять свои сообщения
Вы не можете голосовать в опросах
Вы не можете прикреплять файлы к сообщениям
Вы не можете скачивать файлы