Top Gear / Топ Гир / Сезон: 19 / Серии: 1-7 / BBC [2013, Автошоу, HDTVRip] (Jetvis Studio & RG.paravozik ,Gears Media) + ENG + Sub (Rus)

Ответить на тему
 
Автор
Сообщение

ArtZak ®

Пол:

Стаж: 9 лет 4 месяца

Сообщений: 2830

Репутация: 1366 [+] [-]

Откуда: Россия

Пост 17-Фев-2013 13:53

[Цитировать] 

-Топ Гир / Top Gear-
Год выпуска: 2013
Страна: Великобритания
Жанр: документальный, ток-шоу, комедия, ...
Продолжительность: 01:02:12
Перевод: Перевод #1: Многоголосый закадровый - Jetvis Studio & RG.paravozik
Роли озвучивали: Сергей Битюцкий, Илья Гусаков, Михаил Вельмискин, Илья Ковенков, Екатерина Дмитрова.
Перевод #2: Многоголосый закадровый - Gears Media
Роли озвучивали: Олег Варганов, Всеволод Парк, Антон Гайкин, Игорь Райс и др.

Субтитры: есть
Режиссер: Брайан Клейн, Фил Чурчуорд, Найджел Симпкисс, ...
Продюсер: Энди Уилман, Алекс Рентон, Грант Уордроп, ...
Композитор: Кристиан Хенсон
Художник: Джонатан Пол Грин, Джеймс Роуэлл, Саймон Киммел, ...
Монтаж: Дэн Джеймс, Гай Савин, Джеймс Харт, ...
В ролях: Ричард Хаммонд / Richard Hammond (играет самого себя - Presenter), Джереми Кларксон / Jeremy Clarkson (играет самого себя - Presenter), Джеймс Мэй / James May (играет самого себя - Presenter), Бен Коллинз / Ben Collins (The Stig), Стиг / The Stig (играет самого себя), Перри МакКарти / Perry McCarthy (The Stig), Джейсон Дейв / Jason Dawe (играет самого себя - Presenter), Энди Уилман / Andy Wilman (играет самого себя - ведущий)

Описание: Джереми, Ричард и Джеймс с неподражаемым юмором рассказывают о самых значимых и интересных новинках автомобильного мира.-- --Качество: HDTVRip
Формат: AVI
Видео кодек: XviD
Аудио кодеk: MP3
Видео: 624x352 (16:9), 25.000 fps, XviD 65, 958 Kbps
Аудио: Аудио #1: MP3, 128 Kbps, 48.0 KHz, 2 ch
Аудио #2: MP3, 128 Kbps, 48.0 KHz, 2 ch
Аудио #3: MP3, 128 Kbps, 48.0 KHz, 2 ch

МедиаИнфо

General
Complete name : Top.Gear.19x01.avi
Format : AVI
Format/Info : Audio Video Interleave
File size : 605 MiB
Duration : 1h 2mn
Overall bit rate : 1 360 Kbps
Movie name : Top.Gear.19x01
Director : Semak
Writing application : VirtualDubMod 1.5.10.3 | www.virtualdub-fr.org || (build 2550/release)
Copyright : Y.T.N
Video
ID : 0
Format : MPEG-4 Visual
Format profile : Advanced Simple@L5
Format settings, BVOP : 1
Format settings, QPel : No
Format settings, GMC : No warppoints
Format settings, Matrix : Custom
Codec ID : XVID
Codec ID/Hint : XviD
Duration : 1h 2mn
Bit rate : 958 Kbps
Width : 624 pixels
Height : 352 pixels
Display aspect ratio : 16:9
Frame rate : 25.000 fps
Color space : YUV
Chroma subsampling : 4:2:0
Bit depth : 8 bits
Scan type : Progressive
Bits/(Pixel*Frame) : 0.175
Stream size : 426 MiB (70%)
Writing library : XviD 65
Audio #1
ID : 1
Format : MPEG Audio
Format version : Version 1
Format profile : Layer 3
Mode : Joint stereo
Mode extension : MS Stereo
Codec ID : 55
Codec ID/Hint : MP3
Duration : 1h 1mn
Bit rate mode : Constant
Bit rate : 128 Kbps
Channel(s) : 2 channels
Sampling rate : 48.0 KHz
Video delay : 528ms
Stream size : 56.6 MiB (9%)
Alignment : Split accross interleaves
Interleave, duration : 40 ms (1.01 video frame)
Interleave, preload duration : 504 ms
Writing library : LAME3.99r
Encoding settings : -m j -V 4 -q 0 -lowpass 17 -b 128
Audio #2
ID : 2
Format : MPEG Audio
Format version : Version 1
Format profile : Layer 3
Mode : Joint stereo
Mode extension : MS Stereo
Codec ID : 55
Codec ID/Hint : MP3
Duration : 1h 1mn
Bit rate mode : Constant
Bit rate : 128 Kbps
Channel(s) : 2 channels
Sampling rate : 48.0 KHz
Video delay : 528ms
Stream size : 56.6 MiB (9%)
Alignment : Split accross interleaves
Interleave, duration : 40 ms (1.01 video frame)
Interleave, preload duration : 504 ms
Writing library : LAME3.99r
Encoding settings : -m j -V 4 -q 0 -lowpass 17 -b 128
Audio #3
ID : 3
Format : MPEG Audio
Format version : Version 1
Format profile : Layer 3
Mode : Joint stereo
Mode extension : MS Stereo
Codec ID : 55
Codec ID/Hint : MP3
Duration : 1h 2mn
Bit rate mode : Constant
Bit rate : 128 Kbps
Channel(s) : 2 channels
Sampling rate : 48.0 KHz
Stream size : 57.0 MiB (9%)
Alignment : Aligned on interleaves
Interleave, duration : 40 ms (1.00 video frame)
Interleave, preload duration : 504 ms
Writing library : LAME3.99.5

Эпизод 1

- Дата эфира: 27.01.2013
Продолжительность: 01:02:12
Размер файла: 605 Мб-Описание:
• Ричард Хаммонд садится за руль Pagani Huayra.
• Джеймс Мэй и Bentley Continental GT Speed на раллийной трассе.
• Джереми Кларксон строит самую маленькую машину, пытаясь превзойти опробованный 5 лет назад Peel P50.
• Знаменитость в бюджетном авто: Дэмиэн Льюис, актер.
-

Эпизод 2

- Дата эфира: 03.02.2013
Продолжительность: 01:01:51
Размер файла:603 Мб-Описание:
• Top Gear отправляется на запад США, где Кларксон выбирает Lexus LFA, Хаммонд — Dodge SRT Viper, Мэй — Aston Martin Vanquish. Лас-Вегас, дрэг-рейсинг против полицейских драгстеров, музыкальная дорога, игра в лазертаг c истребителями, канализация в Лос-Анджелесе и гонка до мексиканской границы.
• Знаменитость в бюджетном авто: Мик Флитвуд, барабанщик из группы Fleetwood Mac.

Эпизод 3

- Дата эфира: 10.02.2013
Продолжительность: 01:00:59
Размер файла: 608 Мб-Описание:
• Toyota GT86 и Subaru BRZ в обзоре Джереми Кларксона.
• Большая гонка Top Gear: кто быстрее доберется от лондонского стадиона Уэмбли до стадиона Сан-Сиро в Милане — Джереми на Shelby Mustang GT500 или Ричард с Джеймсом на поезде и общественном транспорте.
• Знаменитость в бюджетном авто: Эми Макдональд, шотландская исполнительница.

Эпизод 4

- Дата эфира: 17.02.2013
Продолжительность: 01:01:51
Размер файла: 608 Мб-Описание:
• Vauxhall Astra VXR (Opel Astra OPC) в обзоре Джереми Кларксона.
• Kia Cee'd во всестороннем тесте Кларксона, включая игру в регби против Джеймса Мэя.
• Ричард Хаммонд в Мексике садится за руль местного спорткара Mastretta MXT.
• Гонщик Формулы-1 в бюджетном авто: Льюис Хэмилтон.

Эпизод 5

- Дата эфира: 24.02.2013
Продолжительность: 01:01:49
Размер файла: 609 Мб-Описание:
• Джереми Кларксон и Ричард Хаммонд строят идеальный автомобиль для пенсионеров.
• Джеймс Мэй знакомит с новым Range Rover в Лондоне, а испытывает в Неваде в гонке против военного грузовика с автопилотом.
• Знаменитость в бюджетном авто: Джеймс МакЭвой, шотландский актёр.

Эпизод 6

- Дата эфира: 03.03.2013
Продолжительность: 00:59:01
Размер файла: 608 Мб-Описание:
• Ведущие Top Gear отправляются на трех универсалах в путешествие по центральной Африке в поисках истока реки Нил.
• Джереми выбирает BMW 5-Series Touring, Ричард — Subaru Impreza WRX Estate, а Джеймс — Volvo 850R Wagon.-

Эпизод 7

- Дата эфира: 10.03.2013
Продолжительность: 00:57:47
Размер файла: 608 Мб-Описание:
• Ведущие Top Gear отправляются на трех универсалах в путешествие по центральной Африке в поисках истока реки Нил.
• Джереми выбирает BMW 5-Series Touring, Ричард — Subaru Impreza WRX Estate, а Джеймс — Volvo 850R Wagon.
-

Скриншоты

Внимание! Раздача ведется путем добавления новых серий!

Чтобы начать докачку новой серии, пользователям необходимо сделать следующее:
1) Остановить скачивание,
2) Удалить старый торрент у себя из клиента - старые серии удалять не надо!
3) Скачать новый торрент и запустить его у себя в клиенте вместо старого, при этом указать клиенту путь в старую папку куда и должно происходить скачивание новых серий.
Ваш клиент при этом должен произвести хеширование старой папки (если это не произойдет - нажмите "Обновить хеш"), и будет докачивать только те серии которых у вас ещё нет. Старые файлы при этом не удаляются, а продолжают раздаваться!
По возможности, желательно не удалять старые серии как можно дольше, чтобы релизер не столько продолжал раздавать старые материалы, а смог сконцентрироваться на новых.
Автор рипа: Semak релиз от RG Y.T.N


Последний раз редактировалось: ArtZak (2013-04-02 00:37), всего редактировалось 9 раз(а)
[Торрент-статистика]
[Профиль]  [ЛС] 

ArtZak ®

Пол:

Стаж: 9 лет 4 месяца

Сообщений: 2830

Репутация: 1366 [+] [-]

Откуда: Россия

Пост 18-Фев-2013 15:46 (спустя 1 день 1 час)

[Цитировать] 

Обновлено. Добавлена 3 серия.
[Торрент-статистика]
[Профиль]  [ЛС] 

ArtZak ®

Пол:

Стаж: 9 лет 4 месяца

Сообщений: 2830

Репутация: 1366 [+] [-]

Откуда: Россия

Пост 25-Фев-2013 23:23 (спустя 7 дней)

[Цитировать] 

Обновлено. Добавлена 4 серия.
[Торрент-статистика]
[Профиль]  [ЛС] 

ArtZak ®

Пол:

Стаж: 9 лет 4 месяца

Сообщений: 2830

Репутация: 1366 [+] [-]

Откуда: Россия

Пост 09-Мар-2013 14:34 (спустя 11 дней)

[Цитировать] 

Обновлено. Добавлена 5 серия.
[Торрент-статистика]
[Профиль]  [ЛС] 

ArtZak ®

Пол:

Стаж: 9 лет 4 месяца

Сообщений: 2830

Репутация: 1366 [+] [-]

Откуда: Россия

Пост 15-Мар-2013 21:24 (спустя 6 дней)

[Цитировать] 

Обновлено. Добавлен 6 эпизод.
[Торрент-статистика]
[Профиль]  [ЛС] 

ArtZak ®

Пол:

Стаж: 9 лет 4 месяца

Сообщений: 2830

Репутация: 1366 [+] [-]

Откуда: Россия

Пост 02-Апр-2013 00:38 (спустя 17 дней)

[Цитировать] 

Обновлено. Добавлен 7 эпизод.
[Торрент-статистика]
[Профиль]  [ЛС] 
Показать сообщения:    
Ответить на тему

Текущее время: Сегодня 15:11

Часовой пояс: GMT + 4



Вы не можете начинать темы
Вы не можете отвечать на сообщения
Вы не можете редактировать свои сообщения
Вы не можете удалять свои сообщения
Вы не можете голосовать в опросах
Вы не можете прикреплять файлы к сообщениям
Вы не можете скачивать файлы