Великий Гэтсби / The Great Gatsby (Limited Edition) - 2013, FLAC (tracks+.cue), lossless

Ответить на тему
 
Автор
Сообщение

Trick-Sterr ®

Пол:

Стаж: 4 года 6 месяцев

Сообщений: 15

Репутация: 6 [+] [-]

Откуда: Киев

Пост 10-Май-2013 21:02

[Цитировать] 

Великий Гэтсби / The Great Gatsby--Жанр: Soundtrack
Страна: США
Год выпуска: 2013
Аудио кодек: FLAC (*.flac)
Тип рипа: tracks+.cue
Продолжительность: 00:56:46
Наличие сканов в содержимом раздачи: нет
Источник: what.cd
-
Описание: «Великий Гэтсби» (англ. The Great Gatsby) — экранизация одноимённого романа 1925 года писателя Фрэнсиса Скотта Фицджеральда в формате 3D. Режиссёр фильма — Баз Лурман, в главных ролях Леонардо Ди Каприо, Кэри Маллиган, Тоби Магуайр и Айла Фишер. Изначально мировая премьера планировалась на 25 декабря 2012 года, однако 6 августа 2012 года было объявлено о переносе релиза на лето 2013 года. На официальном сайте картины датой премьеры значится 10 мая 2013 года.
-

Треклист

01. Jay Z – 100$ Bill [03:21]
02. Beyoncé & André 3000 – Back To Black [03:22]
03. will.i.am – Bang Bang [04:39]
04. Fergie, Q-Tip & GoonRock – A Little Party Never Killed Nobody (All We Got) [04:01]
05. Lana Del Rey – Young And Beautiful [03:56]
06. Bryan Ferry & The Bryan Ferry Orchestra – Love Is The Drug [02:41]
07. Florence + The Machine – Over The Love [04:21]
08. Coco O. Of Quadron – Where The Wind Blows [03:51]
09. Emeli Sandé & The Bryan Ferry Orchestra – Crazy In Love (Kid Koala Version) [02:54]
10. The xx – Together [05:26]
11. Gotye – Heart's A Mess [06:04]
12. Jack White – Love Is Blindness [03:18]
13. Nero – Into The Past [05:17]
14. Sia – Kill And Run [03:36]
-

Лог создания рипа

Exact Audio Copy V1.0 beta 3 from 29. August 2011
EAC extraction logfile from 4. May 2013, 16:10
Various Artists / Music From Baz Luhrmann's Film: The Great Gatsby
Used drive : HL-DT-STBD-RE GGW-H20L Adapter: 0 ID: 1
Read mode : Secure
Utilize accurate stream : Yes
Defeat audio cache : Yes
Make use of C2 pointers : No
Read offset correction : 667
Overread into Lead-In and Lead-Out : No
Fill up missing offset samples with silence : Yes
Delete leading and trailing silent blocks : No
Null samples used in CRC calculations : Yes
Used interface : Native Win32 interface for Win NT & 2000
Gap handling : Appended to previous track
Used output format : User Defined Encoder
Selected bitrate : 32 kBit/s
Quality : High
Add ID3 tag : No
Command line compressor : C:\Program Files (x86)\FLAC\flac.exe
Additional command line options : -T "artist=%artist%" -T "title=%title%" -T "album=%albumtitle%" -T "date=%year%" -T "tracknumber=%tracknr%" -T "genre=%genre%" -8 --verify %source%
TOC of the extracted CD
Track | Start | Length | Start sector | End sector
---------------------------------------------------------
1 | 0:00.00 | 3:21.18 | 0 | 15092
2 | 3:21.18 | 3:21.62 | 15093 | 30229
3 | 6:43.05 | 4:39.03 | 30230 | 51157
4 | 11:22.08 | 4:00.55 | 51158 | 69212
5 | 15:22.63 | 3:55.67 | 69213 | 86904
6 | 19:18.55 | 2:41.23 | 86905 | 99002
7 | 22:00.03 | 4:20.59 | 99003 | 118561
8 | 26:20.62 | 3:50.66 | 118562 | 135877
9 | 30:11.53 | 2:54.14 | 135878 | 148941
10 | 33:05.67 | 5:25.41 | 148942 | 173357
11 | 38:31.33 | 6:04.21 | 173358 | 200678
12 | 44:35.54 | 3:17.69 | 200679 | 215522
13 | 47:53.48 | 5:17.19 | 215523 | 239316
14 | 53:10.67 | 3:21.18 | 239317 | 254409
Track 1
Filename M:\GreatGatsby\01-Jay-Z-$100_Bills.wav
Pre-gap length 0:00:02.00
Peak level 98.8 %
Extraction speed 4.4 X
Track quality 100.0 %
Test CRC 58186317
Copy CRC 58186317
Track not present in AccurateRip database
Copy OK
Track 2
Filename M:\GreatGatsby\02-Beyonce_&_Andre_3000-Back_To_Black.wav
Peak level 98.8 %
Extraction speed 3.7 X
Track quality 99.9 %
Test CRC 46E558D3
Copy CRC 46E558D3
Track not present in AccurateRip database
Copy OK
Track 3
Filename M:\GreatGatsby\03-will.i.am-Bang_Bang.wav
Peak level 98.9 %
Extraction speed 5.4 X
Track quality 100.0 %
Test CRC 01C14981
Copy CRC 01C14981
Track not present in AccurateRip database
Copy OK
Track 4
Filename M:\GreatGatsby\04-Fergie,_Q-Tip_&_Goonrock-A_Little_Party_Never_Killed_Nobody_(All_We_Got).wav
Peak level 98.8 %
Extraction speed 5.6 X
Track quality 100.0 %
Test CRC 6637E354
Copy CRC 6637E354
Track not present in AccurateRip database
Copy OK
Track 5
Filename M:\GreatGatsby\05-Lana_Del_Rey-Young_&_Beautiful.wav
Peak level 100.0 %
Extraction speed 5.8 X
Track quality 100.0 %
Test CRC D6698392
Copy CRC D6698392
Track not present in AccurateRip database
Copy OK
Track 6
Filename M:\GreatGatsby\06-Bryan_Ferry_With_The_Bryan_Ferry_Orchestra-Love_Is_The_Drug.wav
Peak level 98.8 %
Extraction speed 4.4 X
Track quality 99.9 %
Test CRC 18A3905B
Copy CRC 18A3905B
Track not present in AccurateRip database
Copy OK
Track 7
Filename M:\GreatGatsby\07-Florence_+_The_Machine-Over_The_Love.wav
Peak level 98.8 %
Extraction speed 6.4 X
Track quality 100.0 %
Test CRC 5B449F0A
Copy CRC 5B449F0A
Track not present in AccurateRip database
Copy OK
Track 8
Filename M:\GreatGatsby\08-Coco_O._Of_Quadron-Where_The_Wind_Blows.wav
Peak level 98.8 %
Extraction speed 6.7 X
Track quality 100.0 %
Test CRC 20103701
Copy CRC 20103701
Track not present in AccurateRip database
Copy OK
Track 9
Filename M:\GreatGatsby\09-Emeli_Sande_&_The_Bryan_Ferry_Orchestra-Crazy_In_Love.wav
Peak level 98.8 %
Extraction speed 6.4 X
Track quality 100.0 %
Test CRC AF75679B
Copy CRC AF75679B
Track not present in AccurateRip database
Copy OK
Track 10
Filename M:\GreatGatsby\10-The_xx-Together.wav
Peak level 98.8 %
Extraction speed 7.3 X
Track quality 100.0 %
Test CRC 5ACEEE4D
Copy CRC 5ACEEE4D
Track not present in AccurateRip database
Copy OK
Track 11
Filename M:\GreatGatsby\11-Gotye-Hearts_A_Mess.wav
Peak level 98.8 %
Extraction speed 7.9 X
Track quality 100.0 %
Test CRC 2202A7A8
Copy CRC 2202A7A8
Track not present in AccurateRip database
Copy OK
Track 12
Filename M:\GreatGatsby\12-Jack_White-Love_Is_Blindness.wav
Peak level 98.8 %
Extraction speed 7.6 X
Track quality 100.0 %
Test CRC 614782BA
Copy CRC 614782BA
Track not present in AccurateRip database
Copy OK
Track 13
Filename M:\GreatGatsby\13-Nero-Into_The_Past.wav
Peak level 98.8 %
Extraction speed 8.2 X
Track quality 100.0 %
Test CRC 2935E645
Copy CRC 2935E645
Track not present in AccurateRip database
Copy OK
Track 14
Filename M:\GreatGatsby\14-Sia-Kill_&_Run.wav
Peak level 98.8 %
Extraction speed 8.0 X
Track quality 100.0 %
Test CRC 0F7B076E
Copy CRC 0F7B076E
Track not present in AccurateRip database
Copy OK
None of the tracks are present in the AccurateRip database
No errors occurred
End of status report
---- CUETools DB Plugin V2.1.3
[CTDB TOCID: roCpwYuPkGQLT1wC2Yo1XTVh3z0-] found, Submit result: already submitted
[c81327e7] (1/1) Accurately ripped
==== Log checksum 5D664C5F7E68F1FBFEDE6AF3ABDB00110AA3575E0CD0F4ABC4E1136E1AB06391 ====

Содержание индексной карты (.CUE)

REM GENRE Soundtrack
REM DATE 2013
REM DISCID BB0D400E
REM COMMENT "ExactAudioCopy v1.0b3"
CATALOG 0602537360529
PERFORMER "Various Artists"
TITLE "Music From Baz Luhrmann's Film: The Great Gatsby"
FILE "01-jay-z-100_dollar_bills.flac" WAVE
TRACK 01 AUDIO
TITLE "$100 Bills"
PERFORMER "Jay-Z"
ISRC QMJMT1300002
FLAGS DCP
INDEX 01 00:00:00
FILE "02-beyonce_and_andre_3000-back_to_black.flac" WAVE
TRACK 02 AUDIO
TITLE "Back To Black"
PERFORMER "Beyonce & Andre 3000"
ISRC USSM11301758
FLAGS DCP
INDEX 01 00:00:00
FILE "03-will.i.am-bang_bang.flac" WAVE
TRACK 03 AUDIO
TITLE "Bang Bang"
PERFORMER "will.i.am"
ISRC USUM71302533
FLAGS DCP
INDEX 01 00:00:00
FILE "04-fergie_q-tip_and_goonrock-a_little_party_never_killed_nobody_(all_we_got).flac" WAVE
TRACK 04 AUDIO
TITLE "A Little Party Never Killed Nobody (All We Got)"
PERFORMER "Fergie, Q-Tip & Goonrock"
ISRC USUM71303856
FLAGS DCP
INDEX 01 00:00:00
FILE "05-lana_del_rey-young_and_beautiful.flac" WAVE
TRACK 05 AUDIO
TITLE "Young & Beautiful"
PERFORMER "Lana Del Rey"
ISRC GBUM71301823
FLAGS DCP
INDEX 01 00:00:00
FILE "06-bryan_ferry_with_the_bryan_ferry_orchestra-love_is_the_drug.flac" WAVE
TRACK 06 AUDIO
TITLE "Love Is The Drug"
PERFORMER "Bryan Ferry With The Bryan Ferry Orchestra"
ISRC GB5KW1300187
FLAGS DCP
INDEX 01 00:00:00
FILE "07-florence_and_the_machine-over_the_love.flac" WAVE
TRACK 07 AUDIO
TITLE "Over The Love"
PERFORMER "Florence + The Machine"
ISRC GBUM71302472
FLAGS DCP
INDEX 01 00:00:00
FILE "08-coco_o._of_quadron-where_the_wind_blows.flac" WAVE
TRACK 08 AUDIO
TITLE "Where The Wind Blows"
PERFORMER "Coco O. Of Quadron"
ISRC USSM11301569
FLAGS DCP
INDEX 01 00:00:00
FILE "09-emeli_sande_and_the_bryan_ferry_orchestra-crazy_in_love.flac" WAVE
TRACK 09 AUDIO
TITLE "Crazy In Love"
PERFORMER "Emeli Sande & The Bryan Ferry Orchestra"
ISRC GB5KW1300189
FLAGS DCP
INDEX 01 00:00:00
FILE "10-the_xx-together.flac" WAVE
TRACK 10 AUDIO
TITLE "Together"
PERFORMER "The xx"
ISRC GBBKS1300042
FLAGS DCP
INDEX 01 00:00:00
FILE "11-gotye-hearts_a_mess.flac" WAVE
TRACK 11 AUDIO
TITLE "Hearts A Mess"
PERFORMER "Gotye"
ISRC AUGFO0600194
FLAGS DCP
INDEX 01 00:00:00
FILE "12-jack_white-love_is_blindness.flac" WAVE
TRACK 12 AUDIO
TITLE "Love Is Blindness"
PERFORMER "Jack White"
ISRC US3JJ1200196
FLAGS DCP
INDEX 01 00:00:00
FILE "13-nero-into_the_past.flac" WAVE
TRACK 13 AUDIO
TITLE "Into The Past"
PERFORMER "Nero"
ISRC GBUM71302231
FLAGS DCP
INDEX 01 00:00:00
FILE "14-sia-kill_and_run.flac" WAVE
TRACK 14 AUDIO
TITLE "Kill & Run"
PERFORMER "Sia"
ISRC QMGKL1300001
FLAGS DCP
INDEX 01 00:00:00


Последний раз редактировалось: Trick-Sterr (2013-05-10 21:49), всего редактировалось 2 раз(а)
[Торрент-статистика]
[Профиль]  [ЛС] 

Trick-Sterr ®

Пол:

Стаж: 4 года 6 месяцев

Сообщений: 15

Репутация: 6 [+] [-]

Откуда: Киев

Пост 11-Май-2013 09:08 (спустя 12 часов)

[Цитировать] 

--
[Торрент-статистика]
[Профиль]  [ЛС] 
Показать сообщения:    
Ответить на тему

Текущее время: Сегодня 17:18

Часовой пояс: GMT + 4



Вы не можете начинать темы
Вы не можете отвечать на сообщения
Вы не можете редактировать свои сообщения
Вы не можете удалять свои сообщения
Вы не можете голосовать в опросах
Вы не можете прикреплять файлы к сообщениям
Вы не можете скачивать файлы