Army Of Lovers - Big Battle Of Egos - 2013, (Pop, EuroDance), APE (image + .cue), lossless

Ответить на тему
 
Автор
Сообщение

Хоттабыч ®

Стаж: 7 лет 6 месяцев

Сообщений: 27

Репутация: 20 [+] [-]

Пост 21-Авг-2013 08:40

[Цитировать] 

Army Of Lovers - Big Battle Of Egos
Жанр: Pop, EuroDance
Страна: Sweden
Год выпуска: 2013
Контейнер: APE (image + .cue)
Битрейт аудио: lossless
Продолжительность: 00:58:57-Трэклист:

01. Rockin' The Ride
02. Crashing Down
03. Signed On My Tattoo (feat. Gravitonas)
04. Give My Life
05. Crucified
06. Sexual Revulotion
07. My Army Of Lovers
08. Lit De Parade (feat. Big Money)
09. Obsession
10. Israelism
11. Ride The Bullet
12. I Am
13. King Midas
14. La Plage De Saint Tropez
15. Let The Sunshine In
16. Tragedy

-

Отчёт EAC

Exact Audio Copy V0.99 prebeta 5 from 4. May 2009
Отчёт EAC об извлечении, выполненном 29. апреля 2013, 21:59
Army Of Lovers / Big Battle Of Egos
Дисковод: Optiarc DVD RW AD-5240S Adapter: 1 ID: 1
Режим чтения : Достоверность
Использование точного потока : Да
Отключение кэша аудио : Да
Использование указателей C2 : Нет
Коррекция смещения при чтении : 48
Способность читать области Lead-in и Lead-out : Нет
Заполнение пропущенных сэмплов тишиной : Да
Удаление блоков с тишиной в начале и конце : Нет
При вычислениях CRC использовались нулевые сэмплы : Да
Интерфейс : Встроенный Win32-интерфейс для Win NT/2000
Выходной формат : Внутренние WAV-операции
Формат сэмплов : 44.100 Гц; 16 бит; стерео
TOC извлечённого CD
Трек | Старт | Длительность | Начальный сектор | Конечный сектор
---------------------------------------------------------------------
1 | 0:00.00 | 3:03.24 | 0 | 13748
2 | 3:03.24 | 3:33.50 | 13749 | 29773
3 | 6:36.74 | 3:49.44 | 29774 | 46992
4 | 10:26.43 | 3:55.07 | 46993 | 64624
5 | 14:21.50 | 3:33.17 | 64625 | 80616
6 | 17:54.67 | 3:59.09 | 80617 | 98550
7 | 21:54.01 | 3:29.24 | 98551 | 114249
8 | 25:23.25 | 3:27.09 | 114250 | 129783
9 | 28:50.34 | 3:43.07 | 129784 | 146515
10 | 32:33.41 | 3:23.04 | 146516 | 161744
11 | 35:56.45 | 3:29.12 | 161745 | 177431
12 | 39:25.57 | 3:56.01 | 177432 | 195132
13 | 43:21.58 | 3:57.31 | 195133 | 212938
14 | 47:19.14 | 3:33.39 | 212939 | 228952
15 | 50:52.53 | 3:56.07 | 228953 | 246659
16 | 54:48.60 | 4:08.26 | 246660 | 265285
Характеристики диапазона извлечения и сообщения об ошибках
Выбранный диапазон
Имя файла D:\Мои документы\Моя музыка\WAV\Swedish Erotica - Swedish Erotica (Remaster)\Army Of Lovers - Big Battle Of Egos.wav
Пиковый уровень 100.0 %
Качество диапазона 99.9 %
CRC теста F53239AD
CRC копии F53239AD
Копирование... OK
Ошибок не произошло
AccurateRip: сводка
Трек 1 нет в базе данных
Трек 2 нет в базе данных
Трек 3 нет в базе данных
Трек 4 нет в базе данных
Трек 5 нет в базе данных
Трек 6 нет в базе данных
Трек 7 нет в базе данных
Трек 8 нет в базе данных
Трек 9 нет в базе данных
Трек 10 нет в базе данных
Трек 11 нет в базе данных
Трек 12 нет в базе данных
Трек 13 нет в базе данных
Трек 14 нет в базе данных
Трек 15 нет в базе данных
Трек 16 нет в базе данных
Ни одного трека нет в базе AccurateRip
Конец отчёта
Army Of Lovers - Sexual Revolution
[Торрент-статистика]
[Профиль]  [ЛС] 
Показать сообщения:    
Ответить на тему

Текущее время: Сегодня 11:13

Часовой пояс: GMT + 4



Вы не можете начинать темы
Вы не можете отвечать на сообщения
Вы не можете редактировать свои сообщения
Вы не можете удалять свои сообщения
Вы не можете голосовать в опросах
Вы не можете прикреплять файлы к сообщениям
Вы не можете скачивать файлы