Modern Talking - Brother Louie '98 - 1998, (EuroDance), FLAC (image + .cue), lossless

Ответить на тему
 
Автор
Сообщение

Хоттабыч ®

Стаж: 7 лет 6 месяцев

Сообщений: 27

Репутация: 20 [+] [-]

Пост 10-Авг-2013 16:14

[Цитировать] 

Modern Talking - Brother Louie '98
Жанр: EuroDance
Страна: Germany
Год выпуска: 1998
Контейнер: FLAC (image + .cue)
Битрейт аудио: lossless
Продолжительность: 00:15:42-Трэклист:

01. Brother Louie Mix '98 (Feat. Eric Singleton) (Radio Edit)
02. Brother Louie '98 (New Version)
03. Brother Louie Mix '98 (Feat. Eric Singleton) (Extended Version)
04. Cheri Cheri Lady (Feat. Eric Singleton) (Extended Version)

-

Отчёт EAC

Exact Audio Copy V1.0 beta 3 from 29. August 2011
Отчёт EAC об извлечении, выполненном 3. мая 2012, 19:34
Modern Talking / Brother Louie '98
Дисковод: HL-DT-STDVDRAM GSA-T10N Adapter: 0 ID: 0
Режим чтения : Достоверность
Использование точного потока : Да
Отключение кэша аудио : Да
Использование указателей C2 : Нет
Коррекция смещения при чтении : 667
Способность читать области Lead-in и Lead-out : Нет
Заполнение пропущенных сэмплов тишиной : Да
Удаление блоков с тишиной в начале и конце : Нет
При вычислениях CRC использовались нулевые сэмплы : Да
Интерфейс : Установленный внешний ASPI-интерфейс
Выходной формат : Пользовательский кодировщик
Выбранный битрейт : 1024 kBit/s
Качество : Высокий
Добавление ID3-тега : Нет
Утилита сжатия : D:\Program Files\Exact Audio Copy\FLAC\FLAC.EXE
Дополнительные параметры : -V -8 -T "Date=%year%" -T "Genre=%genre%" %source%
TOC извлечённого CD
Трек | Старт | Длительность | Начальный сектор | Конечный сектор
---------------------------------------------------------------------
1 | 0:00.32 | 3:25.63 | 32 | 15469
2 | 3:26.20 | 3:37.60 | 15470 | 31804
3 | 7:04.05 | 4:14.27 | 31805 | 50881
4 | 11:18.32 | 4:23.50 | 50882 | 70656
Характеристики диапазона извлечения и сообщения об ошибках
Выбранный диапазон
Имя файла D:\Desktop\Modern Talking - Brother Louie '98.wav
Пиковый уровень 99.0 %
Скорость извлечения 2.9 X
Качество диапазона 100.0 %
CRC теста C2D29900
CRC копии C2D29900
Копирование... OK
Ошибок не произошло
AccurateRip: сводка
Трек 1 : извлечено точно (доверие 2) [A8E1BF0B] (AR v2)
Трек 2 : извлечено точно (доверие 2) [5FD01A45] (AR v2)
Трек 3 : извлечено точно (доверие 2) [6D41DE4C] (AR v2)
Трек 4 : извлечено точно (доверие 2) [63241611] (AR v2)
Все треки извлечены точно
Конец отчёта
==== Контрольная сумма отчёта EA21E2B2A5291A2907FD71D30F1EDD4106549DBFC2F45EF42982D6FA460199F6 ====
Modern Talking - Brother Louie '98
[Торрент-статистика]
[Профиль]  [ЛС] 
Показать сообщения:    
Ответить на тему

Текущее время: Сегодня 15:57

Часовой пояс: GMT + 4



Вы не можете начинать темы
Вы не можете отвечать на сообщения
Вы не можете редактировать свои сообщения
Вы не можете удалять свои сообщения
Вы не можете голосовать в опросах
Вы не можете прикреплять файлы к сообщениям
Вы не можете скачивать файлы